conanlcg
超级版主

[2015] [欧美] [剧情] [WEB-1080P] 敌对边境 Hostile.Border.2015.1080p.WEBRip.x264-RARBG 1.59GB

-->

帖子完整标题:敌对边境 Hostile.Border.2015.1080p.WEBRip.x264-RARBG 1.59GB




◎译  名 敌对边境 / Hostile Border / Pocha
◎片  名 Pocha: Manifest Destiny
◎年  代 2015
◎产  地 美国
◎类  别 剧情
◎语  言 英语 / 西班牙语
◎上映日期 2015-06-14(美国)
◎IMDb评分 5.4/10 from 497 users
◎IMDb链接 http://www.imdb.com/title/tt5061570
◎豆瓣评分 5.5/10 from 116 users
◎豆瓣链接 https://movie.douban.com/subject/26739926/
◎片  长 88分钟
◎导  演 Michael Dwyer
◎编  剧 Kaitlin McLaughlin
◎主  演 Veronica Sixtos
      胡里奥·赛迪罗 Julio Cedillo
      Roberto Urbina
      Jorge A. Jimenez
      杰西·加西亚 Jesse Garcia
      María del Carmen Farias
      Joe Chacon
      Sebastian Feldman
      Toy Lei
      迈克尔·纳德利 Michael Nardelli
      Patrick Quinlan
      Sandra Santiago
      Derek Viveiros


◎标  签 犯罪 | 美国 | 墨西哥 | 剧情 | 美国电影 | 人性 | 2015 | 西部片

◎简  介

  墨西哥裔女孩克劳丽娅自幼和母亲在美国一起生活。由于过度宠爱,不知天高地厚,年纪轻轻就犯下大罪,被羁押回故乡墨西哥。剧情就此展开.....
Video
ID : 1
Format : AVC
Format/Info : Advanced Video Codec
Format profile : [email protected]
Format settings : CABAC / 4 Ref Frames
Format settings, CABAC : Yes
Format settings, Reference frames : 4 frames
Codec ID : avc1
Codec ID/Info : Advanced Video Coding
Duration : 1 h 23 min
Bit rate : 2 500 kb/s
Width : 1 920 pixels
Height : 812 pixels
Display aspect ratio : 2.35:1
Frame rate mode : Constant
Frame rate : 23.976 (23976/1000) FPS
Color space : YUV
Chroma subsampling : 4:2:0
Bit depth : 8 bits
Scan type : Progressive
Bits/(Pixel*Frame) : 0.067
Stream size : 1.46 GiB (92%)
Writing library : x264 core 152 r2851M ba24899
Encoding settings : cabac=1 / ref=4 / deblock=1:-1:-1 / analyse=0x3:0x113 / me=umh / subme=9 / psy=1 / psy_rd=1.00:0.15 / mixed_ref=1 / me_range=24 / chroma_me=1 / trellis=2 / 8x8dct=1 / cqm=0 / deadzone=21,11 / fast_pskip=1 / chroma_qp_offset=-3 / threads=16 / lookahead_threads=4 / sliced_threads=0 / nr=0 / decimate=1 / interlaced=0 / bluray_compat=0 / constrained_intra=0 / bframes=3 / b_pyramid=2 / b_adapt=2 / b_bias=0 / direct=3 / weightb=1 / open_gop=0 / weightp=2 / keyint=250 / keyint_min=25 / scenecut=40 / intra_refresh=0 / rc_lookahead=50 / rc=2pass / mbtree=1 / bitrate=2500 / ratetol=1.0 / qcomp=0.60 / qpmin=0 / qpmax=69 / qpstep=4 / cplxblur=20.0 / qblur=0.5 / vbv_maxrate=31250 / vbv_bufsize=31250 / nal_hrd=none / filler=0 / ip_ratio=1.40 / aq=3:1.00
Encoded date : UTC 2019-10-09 09:56:30
Tagged date : UTC 2019-10-09 09:56:30
Codec configuration box : avcC

Audio
ID : 2
Format : AAC LC
Format/Info : Advanced Audio Codec Low Complexity
Codec ID : mp4a-40-2
Duration : 1 h 23 min
Duration_LastFrame : -11 ms
Bit rate mode : Constant
Bit rate : 224 kb/s
Channel(s) : 6 channels
Channel layout : C L R Ls Rs LFE
Sampling rate : 48.0 kHz
Frame rate : 46.875 FPS (1024 SPF)
Compression mode : Lossy
Stream size : 134 MiB (8%)
Language : English
Default : Yes
Alternate group : 1
Encoded date : UTC 2019-10-09 09:56:30
Tagged date : UTC 2019-10-09 09:56:30





1 个附件 售价 大小 下载 时间

Hostile.Border.2015.1080p.WEBRip.x264-RARBG.torrent 0 金币 16.59K 196 次 11天前

#1楼
发帖时间:2019-10-10 01:34:05   |   回复数:1
911degrees
隐世仙人♂
非常感谢,谢谢分享
6天前 #2楼
游客组