conanlcg
超级版主

[2019] [其他] [BD-720P] 骏马奥斯温4/骏马“如风”:阿里的到来 Windstorm.4.2019.720p.BluRay.x264-JustWatch 5.46GB

-->

帖子完整标题:骏马奥斯温4/骏马“如风”:阿里的到来 Windstorm.4.2019.720p.BluRay.x264-JustWatch 5.46GB




◎译  名 骏马奥斯温4 / 骏马“如风”:阿里的到来
◎片  名 Ostwind - Aris Ankunft
◎年  代 2019
◎产  地 德国
◎语  言 德语
◎IMDb评分 5.5/10 from 55 users
◎IMDb链接 http://www.imdb.com/title/tt9182284
◎豆瓣评分 0/10 from 0 users
◎豆瓣链接 https://movie.douban.com/subject/30368940/
◎导  演 Theresa von Eltz
◎编  剧 Lea Schmidbauer

◎标  签 奥斯温 | 家庭

◎简  介

  暂无相关剧情介绍
Video
ID : 1
Format : AVC
Format/Info : Advanced Video Codec
Format profile : [email protected]
Format settings : CABAC / 5 Ref Frames
Format settings, CABAC : Yes
Format settings, Reference frames : 5 frames
Codec ID : V_MPEG4/ISO/AVC
Duration : 1 h 46 min
Bit rate : 5 857 kb/s
Width : 1 280 pixels
Height : 536 pixels
Display aspect ratio : 2.40:1
Frame rate mode : Constant
Frame rate : 24.000 FPS
Color space : YUV
Chroma subsampling : 4:2:0
Bit depth : 8 bits
Scan type : Progressive
Bits/(Pixel*Frame) : 0.356
Stream size : 4.34 GiB (79%)
Writing library : x264 core 157 r2969 d4099dd
Encoding settings : cabac=1 / ref=5 / deblock=1:-2:-2 / analyse=0x3:0x113 / me=umh / subme=8 / psy=1 / psy_rd=1.00:0.00 / mixed_ref=1 / me_range=16 / chroma_me=1 / trellis=2 / 8x8dct=1 / cqm=0 / deadzone=21,11 / fast_pskip=0 / chroma_qp_offset=-2 / threads=17 / lookahead_threads=2 / sliced_threads=0 / nr=0 / decimate=1 / interlaced=0 / bluray_compat=0 / constrained_intra=0 / bframes=3 / b_pyramid=2 / b_adapt=2 / b_bias=0 / direct=3 / weightb=1 / open_gop=0 / weightp=2 / keyint=240 / keyint_min=24 / scenecut=40 / intra_refresh=0 / rc_lookahead=50 / rc=2pass / mbtree=1 / bitrate=5857 / ratetol=1.0 / qcomp=0.60 / qpmin=0 / qpmax=69 / qpstep=4 / cplxblur=20.0 / qblur=0.5 / ip_ratio=1.40 / aq=1:1.00
Language : English
Default : Yes
Forced : No

Audio
ID : 2
Format : DTS
Format/Info : Digital Theater Systems
Codec ID : A_DTS
Duration : 1 h 46 min
Bit rate mode : Constant
Bit rate : 1 509 kb/s
Channel(s) : 6 channels
Channel layout : C L R Ls Rs LFE
Sampling rate : 48.0 kHz
Frame rate : 93.750 FPS (512 SPF)
Bit depth : 24 bits
Compression mode : Lossy
Stream size : 1.12 GiB (20%)
Language : German
Default : Yes
Forced : No

Text
ID : 3
Format : UTF-8
Codec ID : S_TEXT/UTF8
Codec ID/Info : UTF-8 Plain Text
Duration : 1 h 39 min
Bit rate : 43 b/s
Count of elements : 988
Stream size : 31.5 KiB (0%)
Language : English
Default : Yes
Forced : No

Menu
00:00:00.000 : :Kapitel 01
00:08:01.792 : :Kapitel 02
00:14:55.583 : :Kapitel 03
00:22:16.375 : :Kapitel 04
00:28:53.875 : :Kapitel 05
00:34:12.875 : :Kapitel 06
00:41:06.833 : :Kapitel 07
00:48:43.250 : :Kapitel 08
00:55:50.917 : :Kapitel 09
01:02:01.333 : :Kapitel 10
01:08:58.083 : :Kapitel 11
01:16:36.167 : :Kapitel 12
01:22:57.708 : :Kapitel 13
01:29:51.333 : :Kapitel 14
01:35:42.000 : :Kapitel 15
01:40:38.417 : :Kapitel 16





1 个附件 售价 大小 下载 时间

Windstorm.4.2019.720p.BluRay.x264-JustWatch.torrent 0 金币 28.11K 231 次 10天前

#1楼
发帖时间:2019-10-10 05:49:27   |   回复数:1
911degrees
隐世仙人♂
非常感谢,谢谢分享
6天前 #2楼
游客组