conanlcg
超级版主

[2018] [其他] [剧情] [BD-720P] 煤工歌手冈德曼 Gundermann.2018.720p.BluRay.x264-JustWatch 5.47GB

-->

帖子完整标题:煤工歌手冈德曼 Gundermann.2018.720p.BluRay.x264-JustWatch 5.47GB




◎译  名 煤工歌手冈德曼
◎片  名 Gundermann
◎年  代 2018
◎产  地 德国
◎类  别 剧情 / 音乐 / 传记
◎语  言 德语
◎上映日期 2018-08-23(德国)
◎IMDb评分 7.5/10 from 971 users
◎IMDb链接 http://www.imdb.com/title/tt7205942
◎豆瓣评分 7.0/10 from 150 users
◎豆瓣链接 https://movie.douban.com/subject/30301444/
◎片  长 128分钟
◎导  演 安德里亚斯·德里森 Andreas Dresen
◎编  剧 莱拉·斯蒂勒 Laila Stieler
◎主  演 彼得·施耐德 Peter Schneider
      比亚内·梅德尔 Bjarne M?del
      亚历山大·谢尔 Alexander Scheer
      米兰·佩舍尔 Milan Peschel
      希尔玛·艾奇霍恩 Hilmar Eichhorn
      安娜·乌特伯格 Anna Unterberger
      索斯藤·默滕 Thorsten Merten
      阿克西尔·普拉尔 Axel Prahl
      克里斯蒂安·斯基宾斯基 Christian Skibinski


◎标  签 德国 | 传记 | 音乐 | 2018 | 历史 | 电影 | 真實事件改編 | 剧情

◎简  介

  该片是关于前东德歌手格哈德?冈德曼动荡生平的传记电影。冈德曼白天在露天煤矿驾驶着挖土车,但晚上却作为歌手登上舞台,以自己创作的音乐感染他人。他以生活和生死为题材,却也涉及政治和社会批判主题。凭借其颇具个人化和真实感、既忧郁又富有诗意的作品,他成为八十年代东德地区的大众偶像,但也时常遭遇同上级的冲突。甚至在两德统一后,冈德曼的受欢迎程度亦丝毫不减。然而,1995年时,冈德曼作为间谍与东德国家安全局合作的往事被公开,尽管这似乎并未影响到他的音乐事业,却令他陷入了漫长的个人斗争。该片获2019年德国电影奖包括最佳影片、导演和男主角在内等六项大奖和三项提名。(小易甫字幕组)

◎获奖情况

  第32届欧洲电影奖(2019)
  最佳影片(提名)
  最佳喜剧片(提名)
  最佳编剧(提名) 莱拉·斯蒂勒
  最佳服装设计(提名)
  最佳妆发(提名)
Video
ID : 1
Format : AVC
Format/Info : Advanced Video Codec
Format profile : [email protected]
Format settings : CABAC / 5 Ref Frames
Format settings, CABAC : Yes
Format settings, Reference frames : 5 frames
Codec ID : V_MPEG4/ISO/AVC
Duration : 2 h 7 min
Bit rate : 5 367 kb/s
Width : 1 280 pixels
Height : 536 pixels
Display aspect ratio : 2.40:1
Frame rate mode : Constant
Frame rate : 24.000 FPS
Color space : YUV
Chroma subsampling : 4:2:0
Bit depth : 8 bits
Scan type : Progressive
Bits/(Pixel*Frame) : 0.326
Stream size : 4.78 GiB (87%)
Writing library : x264 core 157 r2969 d4099dd
Encoding settings : cabac=1 / ref=5 / deblock=1:-2:-2 / analyse=0x3:0x113 / me=umh / subme=8 / psy=1 / psy_rd=1.00:0.00 / mixed_ref=1 / me_range=16 / chroma_me=1 / trellis=2 / 8x8dct=1 / cqm=0 / deadzone=21,11 / fast_pskip=0 / chroma_qp_offset=-2 / threads=17 / lookahead_threads=2 / sliced_threads=0 / nr=0 / decimate=1 / interlaced=0 / bluray_compat=0 / constrained_intra=0 / bframes=3 / b_pyramid=2 / b_adapt=2 / b_bias=0 / direct=3 / weightb=1 / open_gop=0 / weightp=2 / keyint=240 / keyint_min=24 / scenecut=40 / intra_refresh=0 / rc_lookahead=50 / rc=2pass / mbtree=1 / bitrate=5367 / ratetol=1.0 / qcomp=0.60 / qpmin=0 / qpmax=69 / qpstep=4 / cplxblur=20.0 / qblur=0.5 / ip_ratio=1.40 / aq=1:1.00
Language : English
Default : Yes
Forced : No

Audio
ID : 2
Format : DTS
Format/Info : Digital Theater Systems
Codec ID : A_DTS
Duration : 2 h 7 min
Bit rate mode : Constant
Bit rate : 768 kb/s
Channel(s) : 6 channels
Channel layout : C L R Ls Rs LFE
Sampling rate : 48.0 kHz
Frame rate : 93.750 FPS (512 SPF)
Bit depth : 24 bits
Compression mode : Lossy
Stream size : 700 MiB (13%)
Language : German
Default : Yes
Forced : No

Text
ID : 3
Format : UTF-8
Codec ID : S_TEXT/UTF8
Codec ID/Info : UTF-8 Plain Text
Duration : 2 h 6 min
Bit rate : 51 b/s
Count of elements : 1383
Stream size : 48.1 KiB (0%)
Language : English
Default : Yes
Forced : No

Menu
00:00:00.000 : :Kapitel 01
00:08:33.583 : :Kapitel 02
00:14:12.083 : :Kapitel 03
00:20:12.875 : :Kapitel 04
00:27:48.458 : :Kapitel 05
00:35:30.792 : :Kapitel 06
00:43:52.875 : :Kapitel 07
00:52:16.292 : :Kapitel 08
01:00:34.208 : :Kapitel 09
01:07:10.500 : :Kapitel 10
01:18:34.083 : :Kapitel 11
01:23:20.625 : :Kapitel 12
01:32:41.625 : :Kapitel 13
01:39:40.083 : :Kapitel 14
01:50:15.250 : :Kapitel 15
02:03:28.125 : :Kapitel 16





1 个附件 售价 大小 下载 时间

Gundermann.2018.720p.BluRay.x264-JustWatch.torrent 0 金币 28.12K 1008 次 10天前

#1楼
发帖时间:2019-10-10 05:51:26   |   回复数:2
tanchoohoon
武林盟主
感谢楼主的无私分享
10天前 #2楼
911degrees
隐世仙人♂
非常感谢,谢谢分享
6天前 #3楼
游客组