coor
一代宗师

[2013] [其他] [其他] [WEB-1080P] 来自地底深处 From.the.Depths.2013.ITALIAN.1080p.AMZN.WEBRip.DDP5.1.x264-SbR 3.68GB

-->

帖子完整标题:来自地底深处 From.the.Depths.2013.ITALIAN.1080p.AMZN.WEBRip.DDP5.1.x264-SbR 3.68GB




◎译  名 来自地底深处 / From the Depths
◎片  名 Dal profondo
◎年  代 2013
◎产  地 意大利
◎类  别 纪录片
◎语  言 意大利语
◎上映日期 2013-11-13(罗马电影节)
◎IMDb评分 6.5/10 from 39 users
◎IMDb链接 https://www.imdb.com/title/tt3342658
◎豆瓣评分 0/10 from 0 users
◎豆瓣链接 https://movie.douban.com/subject/30183599/
◎片  长 73分钟
◎导  演 Valentina Pedicini
◎编  剧 Valentina Pedicini

◎标  签 纪录片 | 意大利 | MUBI

◎简  介

  Sardinia, nowadays. Dal profondo is entirely shot 500 meters below sea level in the Nuraxi Figus coal mine. Patrizia, the only Italian female coal miner, will guide us into most impenetrable places of the last coal mine in Italy and into the souls and stories of her fellow workers.
Video
ID : 1
Format : AVC
Format/Info : Advanced Video Codec
Format profile : [email protected]
Format settings : CABAC / 4 Ref Frames
Format settings, CABAC : Yes
Format settings, Reference frames : 4 frames
Codec ID : V_MPEG4/ISO/AVC
Duration : 1 h 12 min
Bit rate mode : Constant
Bit rate : 6 582 kb/s
Nominal bit rate : 10 000 kb/s
Width : 1 920 pixels
Height : 800 pixels
Display aspect ratio : 2.40:1
Frame rate mode : Constant
Frame rate : 25.000 FPS
Color space : YUV
Chroma subsampling : 4:2:0
Bit depth : 8 bits
Scan type : Progressive
Bits/(Pixel*Frame) : 0.171
Stream size : 3.35 GiB (91%)
Language : Italian
Default : Yes
Forced : No
Color range : Limited
Color primaries : BT.709
Transfer characteristics : BT.709
Matrix coefficients : BT.709

Audio
ID : 2
Format : E-AC-3
Format/Info : Enhanced AC-3
Commercial name : Dolby Digital Plus
Codec ID : A_EAC3
Duration : 1 h 12 min
Bit rate mode : Constant
Bit rate : 640 kb/s
Channel(s) : 6 channels
Channel layout : L R C LFE Ls Rs
Sampling rate : 48.0 kHz
Frame rate : 31.250 FPS (1536 SPF)
Compression mode : Lossy
Stream size : 333 MiB (9%)
Title : Italian
Language : Italian
Service kind : Complete Main
Default : Yes
Forced : No

Text #1
ID : 3
Format : UTF-8
Codec ID : S_TEXT/UTF8
Codec ID/Info : UTF-8 Plain Text
Duration : 1 h 9 min
Bit rate : 22 b/s
Count of elements : 315
Stream size : 11.7 KiB (0%)
Title : English
Language : English
Default : Yes
Forced : No

Text #2
ID : 4
Format : UTF-8
Codec ID : S_TEXT/UTF8
Codec ID/Info : UTF-8 Plain Text
Duration : 1 h 2 min
Bit rate : 26 b/s
Count of elements : 314
Stream size : 12.3 KiB (0%)
Title : Brazilian
Language : Portuguese
Default : No
Forced : No

Text #3
ID : 5
Format : UTF-8
Codec ID : S_TEXT/UTF8
Codec ID/Info : UTF-8 Plain Text
Duration : 1 h 2 min
Bit rate : 26 b/s
Count of elements : 314
Stream size : 12.2 KiB (0%)
Title : Dutch
Language : Dutch
Default : No
Forced : No

Text #4
ID : 6
Format : UTF-8
Codec ID : S_TEXT/UTF8
Codec ID/Info : UTF-8 Plain Text
Duration : 1 h 2 min
Bit rate : 26 b/s
Count of elements : 314
Stream size : 12.3 KiB (0%)
Title : European
Language : Spanish
Default : No
Forced : No

Text #5
ID : 7
Format : UTF-8
Codec ID : S_TEXT/UTF8
Codec ID/Info : UTF-8 Plain Text
Duration : 1 h 9 min
Bit rate : 23 b/s
Count of elements : 317
Stream size : 11.9 KiB (0%)
Title : French
Language : French
Default : No
Forced : No

Text #6
ID : 8
Format : UTF-8
Codec ID : S_TEXT/UTF8
Codec ID/Info : UTF-8 Plain Text
Duration : 1 h 2 min
Bit rate : 28 b/s
Count of elements : 314
Stream size : 13.1 KiB (0%)
Title : German
Language : German
Default : No
Forced : No





1 个附件 售价 大小 下载 时间

From.the.Depths.2013.ITALIAN.1080p.AMZN.WEBRip.DDP5.1.x264-SbR.torrent 0 金币 37.30K 210 次 4天前

#1楼
发帖时间:2020-03-24 22:20:25   |   回复数:2
911degrees
隐世仙人♂
非常感谢,谢谢分享
4天前 #2楼
chulps
一代宗师
~ 珍惜+支持 ~
3天前 #3楼
游客组