coor
一代宗师

[2013] [其他] [其他] [WEB-1080P] 来自地底深处 From.the.Depths.2013.ITALIAN.1080p.WEBRip.x264-VXT 1.39GB

-->

帖子完整标题:来自地底深处 From.the.Depths.2013.ITALIAN.1080p.WEBRip.x264-VXT 1.39GB




◎译  名 来自地底深处 / From the Depths
◎片  名 Dal profondo
◎年  代 2013
◎产  地 意大利
◎类  别 纪录片
◎语  言 意大利语
◎上映日期 2013-11-13(罗马电影节)
◎IMDb评分 6.5/10 from 39 users
◎IMDb链接 https://www.imdb.com/title/tt3342658
◎豆瓣评分 0/10 from 0 users
◎豆瓣链接 https://movie.douban.com/subject/30183599/
◎片  长 73分钟
◎导  演 Valentina Pedicini
◎编  剧 Valentina Pedicini

◎标  签 纪录片 | 意大利 | MUBI

◎简  介

  Sardinia, nowadays. Dal profondo is entirely shot 500 meters below sea level in the Nuraxi Figus coal mine. Patrizia, the only Italian female coal miner, will guide us into most impenetrable places of the last coal mine in Italy and into the souls and stories of her fellow workers.
Video
ID : 1
Format : AVC
Format/Info : Advanced Video Codec
Format profile : [email protected]
Format settings : CABAC / 4 Ref Frames
Format settings, CABAC : Yes
Format settings, Reference frames : 4 frames
Codec ID : avc1
Codec ID/Info : Advanced Video Coding
Duration : 1 h 12 min
Bit rate : 2 500 kb/s
Width : 1 920 pixels
Height : 800 pixels
Display aspect ratio : 2.40:1
Frame rate mode : Constant
Frame rate : 25.000 FPS
Color space : YUV
Chroma subsampling : 4:2:0
Bit depth : 8 bits
Scan type : Progressive
Bits/(Pixel*Frame) : 0.065
Stream size : 1.27 GiB (92%)
Writing library : x264 core 152 r2851M ba24899
Encoding settings : cabac=1 / ref=4 / deblock=1:-1:-1 / analyse=0x3:0x113 / me=umh / subme=9 / psy=1 / psy_rd=1.00:0.15 / mixed_ref=1 / me_range=24 / chroma_me=1 / trellis=2 / 8x8dct=1 / cqm=0 / deadzone=21,11 / fast_pskip=1 / chroma_qp_offset=-3 / threads=16 / lookahead_threads=4 / sliced_threads=0 / nr=0 / decimate=1 / interlaced=0 / bluray_compat=0 / constrained_intra=0 / bframes=3 / b_pyramid=2 / b_adapt=2 / b_bias=0 / direct=3 / weightb=1 / open_gop=0 / weightp=2 / keyint=250 / keyint_min=25 / scenecut=40 / intra_refresh=0 / rc_lookahead=50 / rc=2pass / mbtree=1 / bitrate=2500 / ratetol=1.0 / qcomp=0.60 / qpmin=0 / qpmax=69 / qpstep=4 / cplxblur=20.0 / qblur=0.5 / vbv_maxrate=31250 / vbv_bufsize=31250 / nal_hrd=none / filler=0 / ip_ratio=1.40 / aq=3:1.00
Encoded date : UTC 2020-03-24 14:48:06
Tagged date : UTC 2020-03-24 14:48:06
Codec configuration box : avcC

Audio
ID : 2
Format : AAC LC
Format/Info : Advanced Audio Codec Low Complexity
Codec ID : mp4a-40-2
Duration : 1 h 12 min
Bit rate mode : Constant
Bit rate : 224 kb/s
Channel(s) : 6 channels
Channel layout : C L R Ls Rs LFE
Sampling rate : 48.0 kHz
Frame rate : 46.875 FPS (1024 SPF)
Compression mode : Lossy
Stream size : 117 MiB (8%)
Language : Italian
Default : Yes
Alternate group : 1
Encoded date : UTC 2020-03-24 14:48:06
Tagged date : UTC 2020-03-24 14:48:06





1 个附件 售价 大小 下载 时间

From.the.Depths.2013.ITALIAN.1080p.WEBRip.x264-VXT.torrent 0 金币 14.72K 231 次 4天前

#1楼
发帖时间:2020-03-25 02:12:58   |   回复数:1
911degrees
隐世仙人♂
非常感谢,谢谢分享
4天前 #2楼
游客组