coor
一代宗师

[更 早] [欧美] [动作] [BD-720P] 星球大对决/决战星球 Battle.Star.Wars.2020.720p.BluRay.x264-GETiT 3.51GB

-->

帖子完整标题:星球大对决/决战星球 Battle.Star.Wars.2020.720p.BluRay.x264-GETiT 3.51GB




◎译  名 星球大对决 / 决战星球 / 星球大战 / 星球大战之崛起
◎片  名 Battle star Wars
◎年  代 2020
◎产  地 美国
◎类  别 动作 / 科幻 / 战争 / 冒险
◎语  言 英语
◎上映日期 2020-01-28(美国)
◎IMDb评分 1.6/10 from 220 users
◎IMDb链接 https://www.imdb.com/title/tt11518196
◎豆瓣评分 2.4/10 from 131 users
◎豆瓣链接 https://movie.douban.com/subject/34926313/
◎片  长 86分钟
◎导  演 James Thomas
◎编  剧 Jeremy M. Inman
◎主  演 Aimee Stolte
      Alissa Filoramo
      Kate Watson
      Canyon Prince
      贾斯汀·波尔蒂 Justin Berti
      Ross Forte
      Alyson Gorske
      Benedikt Sebastian
      Luke Fattorusso


◎标  签 烂片 | 科幻 | 美国 | 傻X电影 | 小成本 | 2020 | 电影 | 差

◎简  介

  当邪恶联盟的领导人威胁要摧毁一个叛军星球以获取其资源时,他的女儿别无选择,只能加入叛军一方,为正义而战。
Video
ID : 1
Format : AVC
Format/Info : Advanced Video Codec
Format profile : [email protected]
Format settings : CABAC / 5 Ref Frames
Format settings, CABAC : Yes
Format settings, Reference frames : 5 frames
Codec ID : V_MPEG4/ISO/AVC
Duration : 1 h 26 min
Bit rate : 4 328 kb/s
Width : 1 280 pixels
Height : 536 pixels
Display aspect ratio : 2.40:1
Frame rate mode : Constant
Frame rate : 23.976 (24000/1001/189150) FPS
Color space : YUV
Chroma subsampling : 4:2:0
Bit depth : 8 bits
Scan type : Progressive
Bits/(Pixel*Frame) : 0.263
Stream size : 2.60 GiB (74%)
Writing library : x264 core 159 r2991 1771b55
Encoding settings : cabac=1 / ref=5 / deblock=1:0:0 / analyse=0x3:0x133 / me=umh / subme=7 / psy=1 / psy_rd=1.00:0.00 / mixed_ref=1 / me_range=16 / chroma_me=1 / trellis=2 / 8x8dct=1 / cqm=0 / deadzone=21,11 / fast_pskip=0 / chroma_qp_offset=-2 / threads=16 / lookahead_threads=2 / sliced_threads=0 / nr=0 / decimate=1 / interlaced=0 / bluray_compat=0 / constrained_intra=0 / bframes=3 / b_pyramid=2 / b_adapt=1 / b_bias=0 / direct=3 / weightb=1 / open_gop=0 / weightp=2 / keyint=250 / keyint_min=23 / scenecut=40 / intra_refresh=0 / rc_lookahead=50 / rc=2pass / mbtree=1 / bitrate=4328 / ratetol=1.0 / qcomp=0.60 / qpmin=0 / qpmax=69 / qpstep=4 / cplxblur=20.0 / qblur=0.5 / ip_ratio=1.40 / aq=1:1.00
Language : English
Default : Yes
Forced : No

Audio
ID : 2
Format : DTS
Format/Info : Digital Theater Systems
Codec ID : A_DTS
Duration : 1 h 26 min
Bit rate mode : Constant
Bit rate : 1 509 kb/s
Channel(s) : 6 channels
Channel layout : C L R Ls Rs LFE
Sampling rate : 48.0 kHz
Frame rate : 93.750 FPS (512 SPF)
Bit depth : 24 bits
Compression mode : Lossy
Stream size : 929 MiB (26%)
Title : DTS
Language : English
Default : Yes
Forced : No

Menu
00:00:00.000 : en:00:00:00.000
00:08:21.543 : en:00:08:21.543
00:17:05.524 : en:00:17:05.524
00:24:43.524 : en:00:24:43.524
00:33:47.275 : en:00:33:47.275
00:44:20.658 : en:00:44:20.658
00:50:24.271 : en:00:50:24.271
01:00:38.093 : en:01:00:38.093
01:08:38.489 : en:01:08:38.489
01:16:51.982 : en:01:16:51.982





1 个附件 售价 大小 下载 时间

Battle.Star.Wars.2020.720p.BluRay.x264-GETiT.torrent 0 金币 35.82K 231 次 2月前

#1楼
发帖时间:2020-03-28 17:15:41   |   回复数:1
911degrees
隐世仙人♂
非常感谢,谢谢分享
2月前 #2楼
游客组