coor
一代宗师

[更 早] [欧美] [剧情] [BD-1080P] 野寺情鸳 Thunder.on.the.Hill.1951.1080p.BluRay.x264.DTS-FGT 7.68GB

-->

帖子完整标题:野寺情鸳 Thunder.on.the.Hill.1951.1080p.BluRay.x264.DTS-FGT 7.68GB




◎译  名 野寺情鸳
◎片  名 Thunder on the Hill
◎年  代 1951
◎产  地 美国
◎类  别 剧情
◎语  言 英语
◎上映日期 1951-10-17
◎IMDb评分 6.8/10 from 535 users
◎IMDb链接 https://www.imdb.com/title/tt0044128
◎豆瓣评分 0/10 from 0 users
◎豆瓣链接 https://movie.douban.com/subject/1299925/
◎片  长 84 分钟
◎导  演 Douglas Sirk
◎编  剧 Oscar Saul / Andrew Solt
◎主  演 Claudette Colbert
      Ann Blyth
      Robert Douglas


◎标  签 道格拉斯·塞克 | Douglas_Sirk | DouglasSirk | 美国电影 | 很想看 | 剧情 | 克劳黛·考尔白 | 黑色电影

◎简  介

  被宣判死刑的凶手瓦莱丽在被送往执行现场时正巧遇到洪水泛滥,把她冲走,当她醒来时却发现在一所修道院中躺着,玛丽修女悉心照顾着她,从瓦莱丽的言行和说辞中,玛丽修女越来越坚信瓦莱丽并不是真正的凶手而是被陷害的,于是她决定亲自下山,和瓦莱丽寻找真凶还她清白。
Video
ID : 1
Format : AVC
Format/Info : Advanced Video Codec
Format profile : [email protected]
Format settings : CABAC / 4 Ref Frames
Format settings, CABAC : Yes
Format settings, Reference frames : 4 frames
Codec ID : V_MPEG4/ISO/AVC
Duration : 1 h 24 min
Bit rate : 11.5 Mb/s
Width : 1 464 pixels
Height : 1 080 pixels
Display aspect ratio : 4:3
Frame rate mode : Constant
Frame rate : 23.976 (24000/1001/189150) FPS
Color space : YUV
Chroma subsampling : 4:2:0
Bit depth : 8 bits
Scan type : Progressive
Bits/(Pixel*Frame) : 0.303
Stream size : 6.79 GiB (88%)
Title : Thunder.on.the.Hill.1951.1080p.BluRay.x264.DTS-FGT
Writing library : x264 core 148 r2795M aaa9aa8
Encoding settings : cabac=1 / ref=4 / deblock=1:-2:-2 / analyse=0x3:0x113 / me=umh / subme=9 / psy=1 / psy_rd=1.00:0.15 / mixed_ref=1 / me_range=16 / chroma_me=1 / trellis=2 / 8x8dct=1 / cqm=0 / deadzone=21,11 / fast_pskip=1 / chroma_qp_offset=-3 / threads=24 / lookahead_threads=3 / sliced_threads=0 / nr=0 / decimate=1 / interlaced=0 / bluray_compat=0 / constrained_intra=0 / bframes=3 / b_pyramid=2 / b_adapt=1 / b_bias=0 / direct=3 / weightb=1 / open_gop=0 / weightp=2 / keyint=250 / keyint_min=25 / scenecut=40 / intra_refresh=0 / rc_lookahead=50 / rc=2pass / mbtree=1 / bitrate=11500 / ratetol=1.0 / qcomp=0.60 / qpmin=0 / qpmax=69 / qpstep=4 / cplxblur=20.0 / qblur=0.5 / vbv_maxrate=31250 / vbv_bufsize=31250 / nal_hrd=none / filler=0 / ip_ratio=1.40 / aq=1:1.00
Language : English
Default : Yes
Forced : No

Audio
ID : 2
ID in the original source medium : 4352 (0x1100)
Format : DTS
Format/Info : Digital Theater Systems
Codec ID : A_DTS
Duration : 1 h 24 min
Bit rate mode : Constant
Bit rate : 1 509 kb/s
Channel(s) : 2 channels
Channel layout : L R
Sampling rate : 48.0 kHz
Frame rate : 93.750 FPS (512 SPF)
Bit depth : 16 bits
Compression mode : Lossy
Stream size : 912 MiB (12%)
Title : Thunder.on.the.Hill.1951.1080p.BluRay.x264.DTS-FGT
Language : English
Default : Yes
Forced : No
Original source medium : Blu-ray

Text
ID : 3
Format : UTF-8
Codec ID : S_TEXT/UTF8
Codec ID/Info : UTF-8 Plain Text
Duration : 1 h 21 min
Bit rate : 87 b/s
Count of elements : 1610
Stream size : 52.6 KiB (0%)
Language : English
Default : Yes
Forced : No

Menu
00:00:00.000 : en:Chapter 00
00:09:11.884 : en:Chapter 01
00:15:51.700 : en:Chapter 02
00:26:58.908 : en:Chapter 03
00:36:30.354 : en:Chapter 04
00:48:53.764 : en:Chapter 05
01:00:03.016 : en:Chapter 06
01:12:04.987 : en:Chapter 07





1 个附件 售价 大小 下载 时间

Thunder.on.the.Hill.1951.1080p.BluRay.x264.DTS-FGT.torrent 0 金币 38.94K 350 次 8天前

#1楼
发帖时间:2020-05-23 08:44:41   |   回复数:1
911degrees
隐世仙人♂
非常感谢,谢谢分享
7天前 #2楼
游客组