coor
一代宗师

[更 早] [欧美] [WEB-1080P] 未来机械女/智能病毒 Sex.And.The.Future.2020.1080p.WEB-DL.DD5.1.H264-FGT 3.53GB

-->

帖子完整标题:未来机械女/智能病毒 Sex.And.The.Future.2020.1080p.WEB-DL.DD5.1.H264-FGT 3.53GB




◎译  名 未来机械女 / 智能病毒
◎片  名 Sex And The Future
◎年  代 2020
◎产  地 美国
◎语  言 英语
◎IMDb评分 6.4/10 from 5 users
◎IMDb链接 https://www.imdb.com/title/tt7541838
◎豆瓣评分 0/10 from 0 users
◎豆瓣链接 https://movie.douban.com/subject/35076649/
◎导  演 Luis Carlos Hueck / Ethan Zvi Kaplan
◎编  剧 Ethan Zvi Kaplan
◎主  演 Kristel Elling
      Ellie Patrikios
      珍妮特·洛佩兹 Janet Lopez


◎简  介

  暂无相关剧情介绍
Video
ID : 1
Format : AVC
Format/Info : Advanced Video Codec
Format profile : [email protected]
Format settings : CABAC / 4 Ref Frames
Format settings, CABAC : Yes
Format settings, Reference frames : 4 frames
Codec ID : V_MPEG4/ISO/AVC
Duration : 1 h 30 min
Bit rate : 5 232 kb/s
Width : 1 920 pixels
Height : 1 080 pixels
Display aspect ratio : 16:9
Frame rate mode : Constant
Frame rate : 23.976 (23976/1000/189150) FPS
Color space : YUV
Chroma subsampling : 4:2:0
Bit depth : 8 bits
Scan type : Progressive
Bits/(Pixel*Frame) : 0.105
Stream size : 3.29 GiB (93%)
Title : Sex.And.The.Future.2020.1080p.WEB-DL.DD5.1.H264-FGT
Language : English
Default : Yes
Forced : No
Color range : Limited
Color primaries : BT.709
Transfer characteristics : BT.709
Matrix coefficients : BT.709

Audio
ID : 2
Format : AC-3
Format/Info : Audio Coding 3
Commercial name : Dolby Digital
Codec ID : A_AC3
Duration : 1 h 30 min
Bit rate mode : Constant
Bit rate : 384 kb/s
Channel(s) : 6 channels
Channel layout : L R C LFE Ls Rs
Sampling rate : 48.0 kHz
Frame rate : 31.250 FPS (1536 SPF)
Bit depth : 16 bits
Compression mode : Lossy
Stream size : 247 MiB (7%)
Title : Sex.And.The.Future.2020.1080p.WEB-DL.DD5.1.H264-FGT
Language : English
Service kind : Complete Main
Default : Yes
Forced : No

Text
ID : 3
Format : UTF-8
Codec ID : S_TEXT/UTF8
Codec ID/Info : UTF-8 Plain Text
Duration : 1 h 24 min
Bit rate : 70 b/s
Count of elements : 1401
Stream size : 43.7 KiB (0%)
Language : English
Default : Yes
Forced : No

Menu
00:00:00.000 : en:I\'m an actor
00:05:29.037 : en:Kingdom of Allure
00:11:05.415 : en:Robot head
00:16:37.038 : en:Begin my acting career
00:21:37.797 : en:Acting school
00:28:20.950 : en:New facilities
00:33:43.730 : en:Going to market
00:37:59.192 : en:Celebrating
00:44:18.154 : en:Scandle
00:50:11.423 : en:Talk show
00:56:16.912 : en:New product
00:58:28.209 : en:Beautiful on the inside
01:06:07.167 : en:Good advice
01:12:09.111 : en:I\'m so horny
01:15:53.126 : en:Control
01:21:25.415 : en:6 months later





1 个附件 售价 大小 下载 时间

Sex.And.The.Future.2020.1080p.WEB-DL.DD5.1.H264-FGT.torrent 0 金币 35.87K 1428 次 2天前

#1楼
发帖时间:2020-05-23 18:26:23   |   回复数:3
911degrees
隐世仙人♂
非常感谢,谢谢分享
2天前 #2楼
liyouchai
隐世仙人♂
谢谢楼主分享资源
2天前 #3楼
kola13
一派掌门
感谢分享
1天前 #4楼
游客组