coor
一代宗师

[2008] [其他] [剧情] [WEB-1080P] 杰克和吉尔对抗世界/情定曼哈顿 Jack.and.Jill.vs.The.World.2008.1080p.AMZN.WEBRip.DDP2.0.x264-NO

-->

帖子完整标题:杰克和吉尔对抗世界/情定曼哈顿 Jack.and.Jill.vs.The.World.2008.1080p.AMZN.WEBRip.DDP2.0.x264-NOGRP 7.30GB



◎译  名 杰克和吉尔对抗世界 / 情定曼哈顿(台)
◎片  名 Jack and Jill vs. the World
◎年  代 2008
◎产  地 美国 / 加拿大
◎类  别 剧情 / 喜剧 / 爱情
◎语  言 英语
◎上映日期 2008-02-12
◎IMDb评分 5.5/10 from 2843 users
◎IMDb链接 https://www.imdb.com/title/tt0475252
◎豆瓣评分 6.0/10 from 995 users
◎豆瓣链接 https://movie.douban.com/subject/1891196/
◎片  长 Argentina: 90 分钟
◎导  演 Vanessa Parise
◎编  剧 Vanessa Parise / Peter Stebbings
◎主  演 Freddie Prinze Jr.
      Taryn Manning
      Vanessa Parise


◎标  签 爱情 | 美国 | 美国电影 | 我看过的电影 | 加拿大 | 我看过的英语电影 | Skin | 2008

◎简  介

  故事发生在车水马龙川流不息的大都市纽约,杰克(小弗雷迪·普林兹 Freddie Prinze Jr. 饰)是生活在那里的一名广告人,光线的工作和生活背后,是他日复一日付出的辛劳汗水。吉尔(塔恩·曼宁 Taryn Manning 饰)初来乍到,一切都像无根浮萍,然而,外表甜美内心单纯的她却坚定的相信自己能够在这里闯出一番天地,甚至遇到一段感情。
  就是这样一对个性和境遇都截然不同的男女,他们走到了一起,彼此之间的巨大差异反而让他们相互吸引,最终两人成为了同居室友,签订了“同居条款”。然而,随着时间的推移,杰克却开始越发在意起吉尔的一举一动起来,他觉得行踪诡异的吉尔一定有什么秘密瞒着自己。

Video
ID : 1
Format : AVC
Format/Info : Advanced Video Codec
Format profile : [email protected]
Format settings : CABAC / 4 Ref Frames
Format settings, CABAC : Yes
Format settings, Reference frames : 4 frames
Codec ID : V_MPEG4/ISO/AVC
Duration : 1 h 27 min
Bit rate : 11.7 Mb/s
Width : 1 920 pixels
Height : 1 080 pixels
Display aspect ratio : 16:9
Frame rate mode : Constant
Frame rate : 23.976 (24000/1001/189150) FPS
Color space : YUV
Chroma subsampling : 4:2:0
Bit depth : 8 bits
Scan type : Progressive
Bits/(Pixel*Frame) : 0.236
Stream size : 7.16 GiB (98%)
Language : English
Default : Yes
Forced : No
Color range : Limited
Color primaries : BT.709
Transfer characteristics : BT.709
Matrix coefficients : BT.709

Audio
ID : 2
Format : E-AC-3
Format/Info : Enhanced AC-3
Commercial name : Dolby Digital Plus
Codec ID : A_EAC3
Duration : 1 h 27 min
Bit rate mode : Constant
Bit rate : 224 kb/s
Channel(s) : 2 channels
Channel layout : L R
Sampling rate : 48.0 kHz
Frame rate : 31.250 FPS (1536 SPF)
Compression mode : Lossy
Stream size : 140 MiB (2%)
Title : English
Language : English
Service kind : Complete Main
Default : Yes
Forced : No

Menu
00:00:00.066 : en:Chapter 01
00:08:28.074 : en:Chapter 02
00:13:51.897 : en:Chapter 03
00:21:42.367 : en:Chapter 04
00:29:28.333 : en:Chapter 05
00:37:54.839 : en:Chapter 06
00:43:16.160 : en:Chapter 07
00:50:53.116 : en:Chapter 08
00:59:01.104 : en:Chapter 09
01:05:52.014 : en:Chapter 10
01:11:08.330 : en:Chapter 11
01:19:33.335 : en:Chapter 12
01:27:39.754 : en:Chapter 13





1 个附件 售价 大小 下载 时间

Jack.and.Jill.vs.The.World.2008.1080p.AMZN.WEBRip.DDP2.0.x264-NOGRP.zip 0 金币 38.01K 112 次 13天前

#1楼
发帖时间:2020-08-01 23:41:07   |   回复数:1
911degrees
隐世仙人♂
非常感谢,谢谢分享
13天前 #2楼
游客组