squallzhao
一派掌门

[2019] [韩国] [喜剧] [BD-1080P] 极限职业 Extreme.Job.2019.KOREAN.1080p.BluRay.x264.DTS-CHD 9.78GB

-->

帖子完整标题:极限职业 Extreme.Job.2019.KOREAN.1080p.BluRay.x264.DTS-CHD 9.78GB



◎译  名 极限职业 / Extreme Job / 极端职业 / 极限行业 / 炸鸡特攻队(港) / 鸡不可失(台)
◎片  名 ????
◎年  代 2019
◎产  地 韩国
◎类  别 喜剧 / 动作 / 犯罪
◎语  言 韩语 / 汉语普通话 / 英语 / 日语
◎上映日期 2019-01-23(韩国)
◎IMDb评分 7.1/10 from 5109 users
◎IMDb链接 https://www.imdb.com/title/tt9541602
◎豆瓣评分 7.7/10 from 123546 users
◎豆瓣链接 https://movie.douban.com/subject/27597250/
◎片  长 111分钟
◎导  演 李炳宪 Byeong-Heon Lee
◎编  剧 裴世英 Se-yeong Bae / 李炳宪 Byeong-Heon Lee
◎主  演 柳承龙 Seung-ryong Ryu
      李荷妮 Ha-nui Lee
      陈善圭 Seon-kyu Jin
      李东辉 Dong-Hwi Lee
      孔明 Myeong Gong
      申河均 Ha-kyun Shin
      吴政世 Jeong-se Oh
      许俊硕 Jun-seok Heo
      金义城 Eui-sung Kim
      宋英奎 Young-kyu Song


◎标  签 韩国 | 喜剧 | 搞笑 | 警匪 | 犯罪 | 动作 | 2019 | 黑色幽默

◎简  介

  一支由5位掉漆警探组成的缉毒小组,因办事不力被长官钉得满头包,成天埋伏在毒贩巢穴对面的炸鸡店中监视,案情也毫无进展。既然每天都得待在炸鸡店,不如动手卖起炸鸡,看似无厘头的决定,竟让鲁蛇警探们意外找到事业第二春,卖到吓吓叫的神级美味炸鸡,让餐厅一夕爆红,订单电话接到手软!副业做太大的警探们有办法达成使命吗?对面的毒贩又是否会闻香而来呢?

◎获奖情况

  第40届韩国电影青龙奖(2019)
  最佳影片(提名) 李炳宪
  最佳导演(提名) 李炳宪
  最佳男主角(提名) 柳承龙
  最佳男配角(提名) 陈善圭
  最佳女配角(提名) 李荷妮
  最佳新人男演员(提名) 孔明
  最佳剧本(提名)
  最佳剪辑(提名)

  第55届百想艺术大赏(2019)
  电影类 最佳男主角(提名) 柳承龙
  电影类 最佳男配角(提名) 陈善圭
  电影类 最佳女配角(提名) 李荷妮
  电影类 最佳新人男演员(提名) 孔明
  电影类 最佳编剧(提名) 裴世英

  第56届韩国电影大钟奖(2020)
  最佳影片(提名)
  最佳导演(提名) 李炳宪
  最佳男配角 陈善圭
  最佳女配角(提名) 李荷妮
  最佳新人男演员(提名) 孔明
  最佳剧本(提名) 文忠日
  最佳企划
  最佳剪辑(提名)

  第6届豆瓣电影年度榜单(2019)
  最受关注的非院线电影(提名)
  评分最高的韩国电影(提名)

Video
ID : 1
Format : AVC
Format/Info : Advanced Video Codec
Format profile : [email protected]
Format settings : CABAC / 4 Ref Frames
Format settings, CABAC : Yes
Format settings, Reference frames : 4 frames
Codec ID : V_MPEG4/ISO/AVC
Duration : 1 h 51 min
Bit rate : 11.1 Mb/s
Width : 1 920 pixels
Height : 804 pixels
Display aspect ratio : 2.40:1
Frame rate mode : Constant
Frame rate : 24.000 FPS
Color space : YUV
Chroma subsampling : 4:2:0
Bit depth : 8 bits
Scan type : Progressive
Bits/(Pixel*Frame) : 0.299
Stream size : 8.60 GiB (88%)
Writing library : x264 core 157 r2867+150 7e91e0e t_mod_Custom_2 [[email protected] X86_64]
Encoding settings : cabac=1 / ref=4 / deblock=1:-3:-3 / analyse=0x3:0x133 / me=umh / subme=11 / psy=1 / fade_compensate=0.00 / psy_rd=0.90:0.10 / mixed_ref=1 / me_range=64 / chroma_me=1 / trellis=2 / 8x8dct=1 / cqm=0 / deadzone=21,11 / fast_pskip=0 / chroma_qp_offset=-4 / threads=25 / lookahead_threads=4 / sliced_threads=0 / nr=0 / decimate=1 / interlaced=0 / bluray_compat=0 / constrained_intra=0 / fgo=0 / bframes=8 / b_pyramid=2 / b_adapt=2 / b_bias=0 / direct=3 / weightb=1 / open_gop=0 / weightp=2 / keyint=250 / keyint_min=24 / scenecut=40 / intra_refresh=0 / rc_lookahead=60 / rc=crf / mbtree=0 / crf=18.0000 / qcomp=0.70 / qpmin=0:0:0 / qpmax=69:69:69 / qpstep=4 / vbv_maxrate=35000 / vbv_bufsize=35000 / crf_max=0.0 / nal_hrd=none / filler=0 / ip_ratio=1.40 / pb_ratio=1.30 / aq=3:1.00 / aq-sensitivity=10.00 / aq-factor=1.00:1.00:1.00 / aq2=0 / aq3=0
Language : Korean
Default : Yes
Forced : No

Audio
ID : 2
Format : DTS
Format/Info : Digital Theater Systems
Codec ID : A_DTS
Duration : 1 h 51 min
Bit rate mode : Constant
Bit rate : 1 509 kb/s
Channel(s) : 6 channels
Channel layout : C L R Ls Rs LFE
Sampling rate : 48.0 kHz
Frame rate : 93.750 FPS (512 SPF)
Bit depth : 16 bits
Compression mode : Lossy
Stream size : 1.17 GiB (12%)
Language : Korean
Default : Yes
Forced : No

Text
ID : 3
Format : UTF-8
Codec ID : S_TEXT/UTF8
Codec ID/Info : UTF-8 Plain Text
Duration : 1 h 47 min
Bit rate : 52 b/s
Count of elements : 1607
Stream size : 41.5 KiB (0%)
Language : English
Default : Yes
Forced : No

Menu
00:00:00.000 : en:绗?01 绔?
00:07:25.292 : en:绗?02 绔?
00:17:20.125 : en:绗?03 绔?
00:26:57.583 : en:绗?04 绔?
00:35:21.125 : en:绗?05 绔?
00:46:18.083 : en:绗?06 绔?
00:56:10.750 : en:绗?07 绔?
01:04:23.667 : en:绗?08 绔?
01:13:56.333 : en:绗?09 绔?
01:23:06.583 : en:绗?10 绔?
01:31:29.917 : en:绗?11 绔?
01:39:09.042 : en:绗?12 绔?





1 个附件 售价 大小 下载 时间

Extreme.Job.2019.KOREAN.1080p.BluRay.x264.DTS-CHD.zip 0 金币 50.32K 567 次 13天前

#1楼
发帖时间:2020-08-02 09:18:05   |   回复数:0
游客组