fg603603
武林盟主

[2017] [欧美] [剧情] [BD-1080P] 索勒斯角 Sollers.Point.2017.1080p.BluRay.x264-PSYCHD 7.66GB

-->

帖子完整标题:索勒斯角 Sollers.Point.2017.1080p.BluRay.x264-PSYCHD 7.66GB



◎译  名 索勒斯角
◎片  名 Sollers Point
◎年  代 2017
◎产  地 美国
◎类  别 剧情
◎语  言 英语
◎上映日期 2017-09-26(圣塞巴斯蒂安电影节) / 2018-05-18(美国)
◎IMDb评分 5.7/10 from 603 users
◎IMDb链接 https://www.imdb.com/title/tt5180888/
◎豆瓣评分 5.1/10 from 116 users
◎豆瓣链接 https://movie.douban.com/subject/26796770/
◎片  长 101分钟
◎导  演 马瑟·波特菲尔德 Matthew Porterfield
◎编  剧 马瑟·波特菲尔德 Matthew Porterfield
◎主  演 麦考尔·隆巴蒂 McCaul Lombardi

◎标  签 剧情 | 美国 | 犯罪 | 美国电影 | 2017 | 美国独立电影 | 2018 | 作者电影

◎简  介

  On probation and living in his father's house after a year of incarceration, 24-year-old Keith navigates his deeply stratified Baltimore neighborhood in search of work and something to give his life new meaning. Though the outside world provides its own share of threats, Keith's greatest enemies are the demons he harbors within.

◎获奖情况

  第65届圣塞巴斯蒂安国际电影节 ?(2017)
  金贝壳奖(提名) 马瑟·波特菲尔德

Video
ID : 1
Format : AVC
Format/Info : Advanced Video Codec
Format profile : [email protected]
Format settings : CABAC / 4 Ref Frames
Format settings, CABAC : Yes
Format settings, Reference frames : 4 frames
Codec ID : V_MPEG4/ISO/AVC
Duration : 1 h 41 min
Bit rate : 9 274 kb/s
Width : 1 920 pixels
Height : 1 040 pixels
Display aspect ratio : 1.85:1
Frame rate mode : Constant
Frame rate : 24.000 FPS
Color space : YUV
Chroma subsampling : 4:2:0
Bit depth : 8 bits
Scan type : Progressive
Bits/(Pixel*Frame) : 0.194
Stream size : 6.43 GiB (84%)
Writing library : x264 core 157 r2932 303c484
Encoding settings : cabac=1 / ref=4 / deblock=1:-3:-3 / analyse=0x3:0x113 / me=umh / subme=8 / psy=1 / psy_rd=1.00:0.00 / mixed_ref=1 / me_range=32 / chroma_me=1 / trellis=2 / 8x8dct=1 / cqm=0 / deadzone=21,11 / fast_pskip=1 / chroma_qp_offset=-2 / threads=32 / lookahead_threads=5 / sliced_threads=0 / nr=0 / decimate=1 / interlaced=0 / bluray_compat=0 / constrained_intra=0 / bframes=3 / b_pyramid=2 / b_adapt=2 / b_bias=0 / direct=3 / weightb=1 / open_gop=0 / weightp=2 / keyint=240 / keyint_min=24 / scenecut=40 / intra_refresh=0 / rc_lookahead=50 / rc=2pass / mbtree=1 / bitrate=9274 / ratetol=1.0 / qcomp=0.60 / qpmin=0 / qpmax=69 / qpstep=4 / cplxblur=20.0 / qblur=0.5 / ip_ratio=1.40 / aq=3:0.80
Default : Yes
Forced : No
Statistics Tags Issue : no_variable_data 1970-01-01 00:00:00 / no_variable_data 2010-02-22 21:41:29
FromStats_BitRate : 9273428
FromStats_Duration : 01:41:34.875000000
FromStats_FrameCount : 146277
FromStats_StreamSize : 7065048710

Audio
ID : 2
Format : DTS
Format/Info : Digital Theater Systems
Codec ID : A_DTS
Duration : 1 h 41 min
Bit rate mode : Constant
Bit rate : 1 509 kb/s
Channel(s) : 6 channels
Channel layout : C L R Ls Rs LFE
Sampling rate : 48.0 kHz
Frame rate : 93.750 FPS (512 SPF)
Bit depth : 24 bits
Compression mode : Lossy
Stream size : 1.07 GiB (14%)
Language : English
Default : Yes
Forced : No
Statistics Tags Issue : no_variable_data 1970-01-01 00:00:00 / no_variable_data 2010-02-22 21:41:29
FromStats_BitRate : 1508999
FromStats_Duration : 01:41:34.902000000
FromStats_FrameCount : 571397
FromStats_StreamSize : 1149650764

Text #1
ID : 3
Format : UTF-8
Codec ID : S_TEXT/UTF8
Codec ID/Info : UTF-8 Plain Text
Language : English
Default : No
Forced : No
Statistics Tags Issue : no_variable_data 1970-01-01 00:00:00 / no_variable_data 2010-02-22 21:41:29
FromStats_BitRate : 51
FromStats_Duration : 01:37:46.208000000
FromStats_FrameCount : 1143
FromStats_StreamSize : 37429

Text #2
ID : 4
Format : UTF-8
Codec ID : S_TEXT/UTF8
Codec ID/Info : UTF-8 Plain Text
Title : SDH
Language : English
Default : No
Forced : No
Statistics Tags Issue : no_variable_data 1970-01-01 00:00:00 / no_variable_data 2010-02-22 21:41:29
FromStats_BitRate : 54
FromStats_Duration : 01:40:18.750000000
FromStats_FrameCount : 1257
FromStats_StreamSize : 40702

Menu
00:00:00.000 : en:00:00:00.000
00:05:43.917 : en:00:05:43.917
00:11:31.417 : en:00:11:31.417
00:18:07.292 : en:00:18:07.292
00:26:08.542 : en:00:26:08.542
00:31:55.583 : en:00:31:55.583
00:36:00.083 : en:00:36:00.083
00:40:59.792 : en:00:40:59.792
00:45:54.083 : en:00:45:54.083
00:50:28.042 : en:00:50:28.042
00:57:46.833 : en:00:57:46.833
01:03:21.625 : en:01:03:21.625
01:08:51.083 : en:01:08:51.083
01:15:18.375 : en:01:15:18.375
01:19:42.083 : en:01:19:42.083
01:25:58.500 : en:01:25:58.500
01:30:53.167 : en:01:30:53.167
01:35:21.208 : en:01:35:21.208
00:10:00.000 : en:00:10:00.000





1 个附件 售价 大小 下载 时间

Sollers.Point.2017.1080p.BluRay.x264-PSYCHD.zip 0 金币 78.13K 35 次 6天前

#1楼
发帖时间:2020-09-16 21:53:24   |   回复数:0
游客组