q3r3
武林盟主

[更 早] [欧美] [科幻] [BD-1080P] 凶火 Firestarter.1984.REMASTERED.1080p.BluRay.X264-AMIABLE 12.02GB

-->

帖子完整标题:凶火 Firestarter.1984.REMASTERED.1080p.BluRay.X264-AMIABLE 12.02GB



◎译  名 凶火
◎片  名 Firestarter
◎年  代 1984
◎产  地 美国
◎类  别 科幻 / 惊悚 / 恐怖
◎语  言 英语
◎上映日期 1984-05-11
◎IMDb评分 6.1/10 from 28784 users
◎IMDb链接 https://www.imdb.com/title/tt0087262/
◎豆瓣评分 6.5/10 from 504 users
◎豆瓣链接 https://movie.douban.com/subject/1296889/
◎片  长 114 分钟
◎导  演 马克·L·莱斯特 Mark L. Lester / Mark Lester
◎编  剧 斯蒂芬·金 Stephen King / Stephen King / 斯坦利·曼 Stanley Mann
◎主  演 德鲁·巴里摩尔 Drew Barrymore
      马丁·辛 Martin Sheen
      海瑟·洛克莱尔 Heather Locklear
      乔治·C·斯科特 George C. Scott
      大卫·凯斯 David Keith
      约翰·桑德福特 John Sanderford
      莱昂·里皮 Leon Rippy
      德鲁斯奈德 Drew Snyder
      乔治·P·威尔伯 George P. Wilbur
      路易丝·弗莱彻 Louise Fletcher
      Laurens Moore
      斯坦利·曼 Stanley Mann
      阿特·卡尼 Art Carney
      弗雷迪·琼斯 Freddie Jones
      罗伯特·米亚诺 Robert Miano
      Curtis Credel
      安东尼奥·法加斯 Antonio Fargas
      摩西·冈恩 Moses Gunn
      Dick Warlock

◎标  签 美国 | 斯蒂芬·金 | 科幻 | 惊悚 | 恐怖 | 美国电影 | 1984 | StephenKing

◎简  介

  在安迪(David Keith饰)和维姬(Heather Locklear饰)还在上大学的时候,他们为了赚钱参与了一次实验,服用了一种叫做Lot-6的化学品。他们结了婚,现在已经拥有了一个9岁的女儿莎林。莎林有一种特异功能,她可以靠自己的意念点燃东西,这可能要归因于安迪和维姬曾经参与的那次实验,同时,安迪也拥有了某种超能力,可以让人们做他希望人做的事情。那次实验的操作者是一个秘密的政府部门,代号为“商店”,执行人是约瑟夫博士,他开始派人追查两个人的下落,并且派出了一个狙击手,要杀掉两人。而他们没有预料到的是,安迪和维姬拥有的超能力可以帮助他们摆脱追捕,一场大战即将上演。
  
  "本片由著名作家斯蒂芬·金的畅销小说改编,Mark L. Lester执导。本片的导演最初选定为约翰·卡朋特。据卡朋特说,Universal制片公司的高层出于票房考虑将其安排去拍摄The Thing (1982)。Martin Sheen仓卒出演,他的剧本是从别的演员那儿临时抓来的。斯蒂芬·琼斯所写的书""Creepshows""上说,David Keith是角色安迪的第十四号候选人。"

Video
ID : 1
Format : AVC
Format/Info : Advanced Video Codec
Format profile : [email protected]
Format settings : CABAC / 5 Ref Frames
Format settings, CABAC : Yes
Format settings, Reference frames : 5 frames
Codec ID : V_MPEG4/ISO/AVC
Duration : 1 h 54 min
Bit rate : 13.5 Mb/s
Width : 1 920 pixels
Height : 816 pixels
Display aspect ratio : 2.35:1
Frame rate mode : Constant
Frame rate : 23.976 (24000/1001/189150) FPS
Color space : YUV
Chroma subsampling : 4:2:0
Bit depth : 8 bits
Scan type : Progressive
Bits/(Pixel*Frame) : 0.360
Stream size : 10.6 GiB (88%)
Writing library : x264 core 148 r2744 b97ae06
Encoding settings : cabac=1 / ref=5 / deblock=1:-3:-3 / analyse=0x3:0x133 / me=umh / subme=10 / psy=1 / psy_rd=1.12:0.00 / mixed_ref=1 / me_range=32 / chroma_me=1 / trellis=2 / 8x8dct=1 / cqm=0 / deadzone=21,11 / fast_pskip=0 / chroma_qp_offset=-2 / threads=24 / lookahead_threads=4 / sliced_threads=0 / nr=0 / decimate=1 / interlaced=0 / bluray_compat=0 / constrained_intra=0 / bframes=8 / b_pyramid=2 / b_adapt=2 / b_bias=0 / direct=3 / weightb=1 / open_gop=0 / weightp=2 / keyint=240 / keyint_min=24 / scenecut=40 / intra_refresh=0 / rc_lookahead=60 / rc=2pass / mbtree=1 / bitrate=13535 / ratetol=1.0 / qcomp=0.60 / qpmin=0 / qpmax=69 / qpstep=4 / cplxblur=20.0 / qblur=0.5 / ip_ratio=1.30 / aq=3:0.75
Default : Yes
Forced : No
Statistics Tags Issue : no_variable_data 1970-01-01 00:00:00 / no_variable_data 2010-02-22 21:41:29
FromStats_BitRate : 13533633
FromStats_Duration : 01:54:23.732000000
FromStats_FrameCount : 164565
FromStats_StreamSize : 11611404339

Audio
ID : 2
Format : DTS
Format/Info : Digital Theater Systems
Codec ID : A_DTS
Duration : 1 h 54 min
Bit rate mode : Constant
Bit rate : 1 509 kb/s
Channel(s) : 2 channels
Channel layout : L R
Sampling rate : 48.0 kHz
Frame rate : 93.750 FPS (512 SPF)
Bit depth : 24 bits
Compression mode : Lossy
Stream size : 1.21 GiB (10%)
Language : English
Default : Yes
Forced : No
Statistics Tags Issue : no_variable_data 1970-01-01 00:00:00 / no_variable_data 2010-02-22 21:41:29
FromStats_BitRate : 1508999
FromStats_Duration : 01:54:23.755000000
FromStats_FrameCount : 643477
FromStats_StreamSize : 1294675724

Text #1
ID : 3
Format : UTF-8
Codec ID : S_TEXT/UTF8
Codec ID/Info : UTF-8 Plain Text
Language : English
Default : No
Forced : No
Statistics Tags Issue : no_variable_data 1970-01-01 00:00:00 / no_variable_data 2010-02-22 21:41:29
FromStats_BitRate : 49
FromStats_Duration : 01:48:49.482000000
FromStats_FrameCount : 1426
FromStats_StreamSize : 40593

Text #2
ID : 4
Format : UTF-8
Codec ID : S_TEXT/UTF8
Codec ID/Info : UTF-8 Plain Text
Title : SDH
Language : English
Default : No
Forced : No
Statistics Tags Issue : no_variable_data 1970-01-01 00:00:00 / no_variable_data 2010-02-22 21:41:29
FromStats_BitRate : 54
FromStats_Duration : 01:50:50.269000000
FromStats_FrameCount : 1665
FromStats_StreamSize : 45467

Menu
00:00:00.000 : en:00:00:00.000
00:09:11.176 : en:00:09:11.176
00:20:10.918 : en:00:20:10.918
00:28:50.729 : en:00:28:50.729
00:36:43.952 : en:00:36:43.952
00:45:03.034 : en:00:45:03.034
00:52:05.622 : en:00:52:05.622
01:00:48.937 : en:01:00:48.937
01:12:45.570 : en:01:12:45.570
01:21:54.201 : en:01:21:54.201
01:29:14.599 : en:01:29:14.599
01:41:37.842 : en:01:41:37.842





1 个附件 售价 大小 下载 时间

Firestarter.1984.REMASTERED.1080p.BluRay.X264-AMIABLE.zip 0 金币 61.57K 147 次 7天前

#1楼
发帖时间:2020-09-16 22:56:08   |   回复数:0
游客组