q3r3
武林盟主

[更 早] [欧美] [喜剧] [BD-1080P] 天师斗僵尸 Fright.Night.1985.1080p.BluRay.X264-AMIABLE 7.94GB

-->

帖子完整标题:天师斗僵尸 Fright.Night.1985.1080p.BluRay.X264-AMIABLE 7.94GB



◎译  名 天师斗僵尸
◎片  名 Fright Night
◎年  代 1985
◎产  地 美国
◎类  别 喜剧 / 惊悚 / 恐怖
◎语  言 英语
◎上映日期 1985-08-02
◎IMDb评分 7.1/10 from 58455 users
◎IMDb链接 https://www.imdb.com/title/tt0089175/
◎豆瓣评分 6.6/10 from 827 users
◎豆瓣链接 https://movie.douban.com/subject/1295190/
◎片  长 106 分钟
◎导  演 汤姆·霍兰德 Tom Holland
◎编  剧 汤姆·霍兰德 Tom Holland
◎主  演 克里斯·萨兰登 Chris Sarandon
      威廉·罗格斯戴尔 William Ragsdale
      阿曼达·比尔斯 Amanda Bearse
      罗迪·麦克道尔 Roddy McDowall
      斯蒂芬·杰弗里斯 Stephen Geoffreys
      Jonathan Stark

◎标  签 恐怖 | 吸血鬼 | 美国 | 喜剧 | 惊悚 | 1985 | 美国电影 | 1980s

◎简  介

  吸血鬼狂热爱好者查理?布莱维斯特(William Ragsdale 饰)最大的爱好就是在深夜看恐怖电影。某晚,他隔壁的空房子里来了两个不速之客,根据多年观看恐怖片的经验,查理断定这两个人一定是吸血鬼。然而无论是警察,还是好友女友,没有一个人相信他的说辞。
  
  万般无奈之下,查理只能请来恐怖电视节目“颤栗之夜”的主持人皮特?文森特(Roddy McDowell 饰)。虽然文森特质疑查理的说法,但看在钱的份上他还是前来调查。面对纠缠不休的查理,吸血鬼杰瑞(Chris Sarandon 饰)该如何对付呢?

Video
ID : 1
Format : AVC
Format/Info : Advanced Video Codec
Format profile : [email protected]
Format settings : CABAC / 5 Ref Frames
Format settings, CABAC : Yes
Format settings, Reference frames : 5 frames
Codec ID : V_MPEG4/ISO/AVC
Duration : 1 h 46 min
Bit rate : 9 176 kb/s
Width : 1 920 pixels
Height : 800 pixels
Display aspect ratio : 2.40:1
Frame rate mode : Constant
Frame rate : 23.976 (24000/1001/189150) FPS
Color space : YUV
Chroma subsampling : 4:2:0
Bit depth : 8 bits
Scan type : Progressive
Bits/(Pixel*Frame) : 0.249
Stream size : 6.66 GiB (84%)
Writing library : x264 core 129 r2230 1cffe9f
Encoding settings : cabac=1 / ref=5 / deblock=1:0:0 / analyse=0x3:0x113 / me=umh / subme=8 / psy=1 / psy_rd=1.00:0.00 / mixed_ref=1 / me_range=16 / chroma_me=1 / trellis=1 / 8x8dct=1 / cqm=0 / deadzone=21,11 / fast_pskip=1 / chroma_qp_offset=-2 / threads=12 / lookahead_threads=2 / sliced_threads=0 / nr=0 / decimate=1 / interlaced=0 / bluray_compat=0 / constrained_intra=0 / bframes=3 / b_pyramid=2 / b_adapt=2 / b_bias=0 / direct=3 / weightb=1 / open_gop=0 / weightp=2 / keyint=240 / keyint_min=24 / scenecut=40 / intra_refresh=0 / rc_lookahead=50 / rc=2pass / mbtree=1 / bitrate=9176 / ratetol=1.0 / qcomp=0.60 / qpmin=0 / qpmax=69 / qpstep=4 / cplxblur=20.0 / qblur=0.5 / ip_ratio=1.40 / aq=1:1.00
Language : English
Default : Yes
Forced : No

Audio
ID : 2
Format : DTS
Format/Info : Digital Theater Systems
Codec ID : A_DTS
Duration : 1 h 46 min
Bit rate mode : Constant
Bit rate : 1 509 kb/s
Channel(s) : 6 channels
Channel layout : C L R Ls Rs LFE
Sampling rate : 48.0 kHz
Frame rate : 93.750 FPS (512 SPF)
Bit depth : 24 bits
Compression mode : Lossy
Stream size : 1.12 GiB (14%)
Language : English
Default : Yes
Forced : No

Text
ID : 3
Format : UTF-8
Codec ID : S_TEXT/UTF8
Codec ID/Info : UTF-8 Plain Text
Language : English
Default : No
Forced : No

Menu
00:00:00.000 : en:00:00:00.000
00:10:00.600 : en:00:10:00.600
00:20:00.658 : en:00:20:00.658
00:30:01.383 : en:00:30:01.383
00:40:02.609 : en:00:40:02.609
00:50:02.416 : en:00:50:02.416
01:00:03.767 : en:01:00:03.767
01:10:04.117 : en:01:10:04.117
01:20:04.383 : en:01:20:04.383
01:30:04.733 : en:01:30:04.733
01:40:06.209 : en:01:40:06.209





1 个附件 售价 大小 下载 时间

Fright.Night.1985.1080p.BluRay.X264-AMIABLE.zip 0 金币 80.84K 217 次 7天前

#1楼
发帖时间:2020-09-16 22:58:55   |   回复数:0
游客组