squallzhao
武林盟主

[2010] [欧美] [其他] [BD-1080P] 流行乐队迷 Groupie.2010.1080p.BluRay.x264.DTS-FGT 4.77GB

-->

帖子完整标题:流行乐队迷 Groupie.2010.1080p.BluRay.x264.DTS-FGT 4.77GB



◎译  名 流行乐队迷
◎片  名 Groupie
◎年  代 2010
◎产  地 美国
◎类  别 悬疑 / 惊悚 / 犯罪
◎语  言 英语
◎上映日期 2010
◎IMDb评分 3.5/10 from 390 users
◎IMDb链接 https://www.imdb.com/title/tt1422653/
◎豆瓣评分 /10 from 0 users
◎豆瓣链接 https://movie.douban.com/subject/5170602/
◎导  演 马克·L·莱斯特 Mark L. Lester
◎编  剧 迈克尔·费法 Michael Feifer
◎主  演 米奇·莱恩 Mitch Ryan
      Maja Miletich
      迈克尔·德 Michael Teh
      埃里克·罗伯茨 Eric Roberts
      妮可·摩尔 Nicole Moore
      艾普·蒙哥马利 April Montgomery
      迪塔·德莱昂 Dita de Leon
      比文·普林斯 Bevin Prince
      斯科特·安东尼·利特 Scott Anthony Leet
      卡亚·科利 Caia Coley
      Danny Arroyo
      塔恩·曼宁 Taryn Manning
      谢瑞琳·威尔逊 Cherilyn Wilson
      提诺·斯特劳克曼 Tino Struckmann
      哈尔·奥赞 Hal Ozsan

◎标  签 美国 | 犯罪 | 悬疑 | 2010 | 音乐 | 電影 | 未下载 | 惊悚

◎简  介

  暂无相关剧情介绍

Video
ID : 1
Format : AVC
Format/Info : Advanced Video Codec
Format profile : [email protected]
Format settings, CABAC : Yes
Format settings, ReFrames : 4 frames
Codec ID : V_MPEG4/ISO/AVC
Duration : 1h 19mn
Bit rate : 6 940 Kbps
Width : 1 920 pixels
Height : 1 080 pixels
Display aspect ratio : 16:9
Frame rate mode : Constant
Frame rate : 23.976 (24000/1001) fps
Color space : YUV
Chroma subsampling : 4:2:0
Bit depth : 8 bits
Scan type : Progressive
Bits/(Pixel*Frame) : 0.140
Stream size : 3.84 GiB (81%)
Writing library : x264 core 105 r1732 2b04482
Encoding settings : cabac=1 / ref=4 / deblock=1:0:0 / analyse=0x3:0x133 / me=umh / subme=7 / psy=1 / psy_rd=1.00:0.00 / mixed_ref=1 / me_range=16 / chroma_me=1 / trellis=1 / 8x8dct=1 / cqm=0 / deadzone=21,11 / fast_pskip=0 / chroma_qp_offset=-2 / threads=12 / sliced_threads=0 / nr=0 / decimate=1 / interlaced=0 / constrained_intra=0 / bframes=3 / b_pyramid=2 / b_adapt=1 / b_bias=0 / direct=1 / weightb=1 / open_gop=0 / weightp=2 / keyint=250 / keyint_min=23 / scenecut=40 / intra_refresh=0 / rc_lookahead=40 / rc=crf / mbtree=1 / crf=20.0 / qcomp=0.60 / qpmin=10 / qpmax=51 / qpstep=4 / ip_ratio=1.40 / aq=1:1.00
Language : English
Default : No
Forced : No

Audio
ID : 2
Format : DTS
Format/Info : Digital Theater Systems
Mode : 16
Format settings, Endianness : Big
Codec ID : A_DTS
Duration : 1h 19mn
Bit rate mode : Constant
Bit rate : 1 509 Kbps
Channel(s) : 6 channels
Channel positions : Front: L C R, Side: L R, LFE
Sampling rate : 48.0 KHz
Frame rate : 93.750 fps (512 spf)
Bit depth : 16 bits
Compression mode : Lossy
Stream size : 855 MiB (18%)
Language : English
Default : No
Forced : No





1 个附件 售价 大小 下载 时间

Groupie.2010.1080p.BluRay.x264.DTS-FGT.zip 0 金币 96.78K 56 次 3天前

#1楼
发帖时间:2020-10-18 10:15:56   |   回复数:0
游客组