squallzhao
武林盟主

[更 早] [欧美] [剧情] [BD-1080P] 猛龙铁金刚/猛虎扑扫辣手党 Mr.Majestyk.1974.1080p.BluRay.x264.DTS-FGT 9.40GB

-->

帖子完整标题:猛龙铁金刚/猛虎扑扫辣手党 Mr.Majestyk.1974.1080p.BluRay.x264.DTS-FGT 9.40GB



◎译  名 猛龙铁金刚/猛虎扑扫辣手党/田庄大哥
◎片  名 Mr. Majestyk
◎年  代 1974
◎产  地 美国
◎类  别 剧情 / 动作 / 惊悚 / 犯罪
◎语  言 英语
◎上映日期 1974-07-17
◎IMDb评分 6.8/10 from 7427 users
◎IMDb链接 https://www.imdb.com/title/tt0071866/
◎豆瓣评分 /10 from 0 users
◎豆瓣链接 https://movie.douban.com/subject/1306216/
◎片  长 103 分钟
◎导  演 理查德·弗莱彻 Richard Fleischer
◎编  剧 埃尔莫·伦纳德 Elmore Leonard
◎主  演 查尔斯·布朗森 Charles Bronson
      艾尔·勒提埃里 Al Lettieri
      琳达·克里斯特尔 Linda Cristal
      保罗·科斯罗 Paul Koslo
      亚历杭德罗·雷伊 Alejandro Rey
      乔丹·罗兹 Jordan Rhodes
      James Reynolds
      弗兰克·马克斯韦尔 Frank Maxwell
      泰勒·拉切尔 Taylor Lacher
      李·珀塞尔 Lee Purcell
      Allen Pinson
      李察·厄尔德曼 Richard Erdman

◎标  签 美国 | 动作 | 1974 | 理查德·弗莱彻 | 美国电影 | 查尔斯.布朗森 | CharlesBronson | 老片

◎简  介

  护瓜英雄传,现代西部片

Video
ID : 1
Format : AVC
Format/Info : Advanced Video Codec
Format profile : [email protected]
Format settings, CABAC : Yes
Format settings, ReFrames : 4 frames
Codec ID : V_MPEG4/ISO/AVC
Duration : 1h 43mn
Bit rate : 11.5 Mbps
Width : 1 916 pixels
Height : 1 040 pixels
Display aspect ratio : 1.85:1
Frame rate mode : Constant
Frame rate : 23.976 (24000/1001) fps
Color space : YUV
Chroma subsampling : 4:2:0
Bit depth : 8 bits
Scan type : Progressive
Bits/(Pixel*Frame) : 0.241
Stream size : 8.12 GiB (86%)
Writing library : x264 core 148 r2694 3b70645
Encoding settings : cabac=1 / ref=4 / deblock=1:-2:-2 / analyse=0x3:0x113 / me=umh / subme=7 / psy=1 / psy_rd=1.00:0.15 / mixed_ref=1 / me_range=16 / chroma_me=1 / trellis=1 / 8x8dct=1 / cqm=0 / deadzone=21,11 / fast_pskip=1 / chroma_qp_offset=-3 / threads=40 / lookahead_threads=3 / sliced_threads=0 / nr=0 / decimate=1 / interlaced=0 / bluray_compat=0 / constrained_intra=0 / bframes=3 / b_pyramid=2 / b_adapt=2 / b_bias=0 / direct=3 / weightb=1 / open_gop=0 / weightp=2 / keyint=250 / keyint_min=25 / scenecut=40 / intra_refresh=0 / rc_lookahead=50 / rc=abr / mbtree=1 / bitrate=11500 / ratetol=1.0 / qcomp=0.60 / qpmin=0 / qpmax=69 / qpstep=4 / vbv_maxrate=31250 / vbv_bufsize=31250 / nal_hrd=none / filler=0 / ip_ratio=1.40 / aq=1:1.00
Language : English
Default : Yes
Forced : No

Audio
ID : 2
Format : DTS
Format/Info : Digital Theater Systems
Mode : 16
Format settings, Endianness : Big
Codec ID : A_DTS
Duration : 1h 43mn
Bit rate mode : Constant
Bit rate : 1 509 Kbps
Channel(s) : 2 channels
Channel positions : Front: L R
Sampling rate : 48.0 KHz
Frame rate : 93.750 fps (512 spf)
Bit depth : 16 bits
Compression mode : Lossy
Stream size : 1.09 GiB (12%)
Language : English
Default : Yes
Forced : No

Text
ID : 3
Format : UTF-8
Codec ID : S_TEXT/UTF8
Codec ID/Info : UTF-8 Plain Text
Language : English
Default : Yes
Forced : No

Menu
00:00:00.000 : en:Main Title/Migrants
00:06:22.048 : en:\"Get Off My Land\"
00:12:02.055 : en:False Arrest
00:16:42.335 : en:Famous Hit Man
00:19:20.493 : en:The Hijacking
00:24:18.124 : en:\"You Name the Price\"
00:29:08.915 : en:Making a Trade
00:32:33.954 : en:That\'s No Cigarette
00:37:04.891 : en:Obsessed With Revenge
00:40:21.622 : en:\"You Want Me as Bait\"
00:42:41.730 : en:Not Very Neighborly
00:53:42.890 : en:Picking Majestyk\'s Melons
01:03:51.533 : en:Flirting With Disaster
01:07:50.939 : en:This is No Accident
01:16:20.616 : en:Tired of Hiding Out
01:21:25.621 : en:The Great Escape
01:30:01.471 : en:Suckered In
01:32:21.077 : en:Trapped Like Rats
01:38:07.423 : en:Running Scared
01:41:43.672 : en:Final Prayer/Credits





1 个附件 售价 大小 下载 时间

Mr.Majestyk.1974.1080p.BluRay.x264.DTS-FGT.zip 0 金币 95.49K 133 次 7天前

#1楼
发帖时间:2020-10-18 10:22:01   |   回复数:0
游客组