squallzhao
武林盟主

[更 早] [欧美] [科幻] [BD-1080P] 月球陷阱 Moontrap.1989.1080p.BluRay.x264.DTS-FGT 8.17GB

-->

帖子完整标题:月球陷阱 Moontrap.1989.1080p.BluRay.x264.DTS-FGT 8.17GB



◎译  名 月球陷阱
◎片  名 Moontrap
◎年  代 1989
◎产  地 美国
◎类  别 科幻 / 恐怖
◎语  言 英语
◎上映日期 1989
◎IMDb评分 5/10 from 2956 users
◎IMDb链接 https://www.imdb.com/title/tt0097911/
◎豆瓣评分 5.7/10 from 234 users
◎豆瓣链接 https://movie.douban.com/subject/4862334/
◎片  长 USA: 92 分钟
◎主  演 沃尔特·凯尼格 Walter Koenig
      布鲁斯·坎贝尔 Bruce Campbell
      Judy Levitt

◎标  签 科幻 | 美国 | 恐怖 | 惊悚 | 太空 | 科幻片 | 1989 | 美国电影

◎简  介

  俩宇航员在太空中捡到一个铁皮的蛋,有橄榄球那么大。带回地球后,它“孵化”出一个机器人。当然被我们干掉了,但这只是开始。原来它们是有生命的机器,几百亿年前就想征服地球了,但被当时的人类(当时居然有人类!而且科技很发达!前一批人类!!)阻止在月亮上。今天终于利用现在人类的登月舱充了电,重新执行征服计划!! 当然结果还是我们人类胜利了。

Video
ID : 1
Format : AVC
Format/Info : Advanced Video Codec
Format profile : [email protected]
Format settings, CABAC : Yes
Format settings, ReFrames : 4 frames
Codec ID : V_MPEG4/ISO/AVC
Duration : 1h 30mn
Bit rate : 11.5 Mbps
Width : 1 920 pixels
Height : 1 080 pixels
Display aspect ratio : 16:9
Frame rate mode : Constant
Frame rate : 23.976 (24000/1001) fps
Color space : YUV
Chroma subsampling : 4:2:0
Bit depth : 8 bits
Scan type : Progressive
Bits/(Pixel*Frame) : 0.231
Stream size : 7.05 GiB (86%)
Writing library : x264 core 148 r2694 3b70645
Encoding settings : cabac=1 / ref=4 / deblock=1:-2:-2 / analyse=0x3:0x113 / me=umh / subme=7 / psy=1 / psy_rd=1.00:0.15 / mixed_ref=1 / me_range=16 / chroma_me=1 / trellis=1 / 8x8dct=1 / cqm=0 / deadzone=21,11 / fast_pskip=1 / chroma_qp_offset=-3 / threads=40 / lookahead_threads=3 / sliced_threads=0 / nr=0 / decimate=1 / interlaced=0 / bluray_compat=0 / constrained_intra=0 / bframes=3 / b_pyramid=2 / b_adapt=2 / b_bias=0 / direct=3 / weightb=1 / open_gop=0 / weightp=2 / keyint=250 / keyint_min=25 / scenecut=40 / intra_refresh=0 / rc_lookahead=50 / rc=abr / mbtree=1 / bitrate=11500 / ratetol=1.0 / qcomp=0.60 / qpmin=0 / qpmax=69 / qpstep=4 / vbv_maxrate=31250 / vbv_bufsize=31250 / nal_hrd=none / filler=0 / ip_ratio=1.40 / aq=1:1.00
Language : English
Default : Yes
Forced : No

Audio
ID : 2
Format : DTS
Format/Info : Digital Theater Systems
Mode : 16
Format settings, Endianness : Big
Codec ID : A_DTS
Duration : 1h 30mn
Bit rate mode : Constant
Bit rate : 1 509 Kbps
Channel(s) : 2 channels
Channel positions : Front: L R
Sampling rate : 48.0 KHz
Frame rate : 93.750 fps (512 spf)
Bit depth : 16 bits
Compression mode : Lossy
Stream size : 979 MiB (12%)
Language : English
Default : Yes
Forced : No

Menu
00:00:00.000 : en:Chapter 01
00:12:48.893 : en:Chapter 02
00:29:48.369 : en:Chapter 03
00:36:24.307 : en:Chapter 04
00:46:20.986 : en:Chapter 05
00:55:14.519 : en:Chapter 06
01:04:16.853 : en:Chapter 07
01:14:17.744 : en:Chapter 08





1 个附件 售价 大小 下载 时间

Moontrap.1989.1080p.BluRay.x264.DTS-FGT.zip 0 金币 83.11K 154 次 3天前

#1楼
发帖时间:2020-10-18 10:30:49   |   回复数:2
hhhhhhl
一派掌门
哈哈,几百亿年前有地球吗
3天前 #2楼
kola13
武林盟主
感谢分享
3天前 #3楼
游客组