q3r3
武林盟主

[更 早] [日本] [动作] [BD-1080P] 带子雄狼:三涂河的乳母车 Lone.Wolf.and.Cub.Baby.Cart.at.the.River.Styx.1972.1080p.BluRay.x26

-->

帖子完整标题:带子雄狼:三涂河的乳母车 Lone.Wolf.and.Cub.Baby.Cart.at.the.River.Styx.1972.1080p.BluRay.x264-USURY 6.56GB



◎译  名 带子雄狼:三涂河的乳母车/Baby Cart 2/Kozure ?kami: Sanzu no kawa no ubaguruma/Lone Wolf and Cub: Baby Cart at the River Styx/Lone Wolf and Cub: Perambulator of the River of Sanzu/Sword of Vengeance, Part II/带子雄狼:沙漠大厮杀
◎片  名 子連れ狼 三途の川の乳母車
◎年  代 1972
◎产  地 日本
◎类  别 动作
◎语  言 日语
◎上映日期 1972-04-22(日本)
◎IMDb评分 8/10 from 5372 users
◎IMDb链接 https://www.imdb.com/title/tt0068816/
◎豆瓣评分 7.9/10 from 937 users
◎豆瓣链接 https://movie.douban.com/subject/1307278/
◎片  长 85分钟
◎导  演 三隅研次 Kenji Misumi
◎编  剧 小池一雄 Kazuo Koike / 小岛刚夕 Goseki Kojima
◎主  演 若山富三郎 Tomisaburo Wakayama
      松尾嘉代 Kayo Matsuo
      小林昭二 Akiji Kobayashi
      大木实 Minoru Oki
      岸田森 Shin Kishida
      江幡高志 Takashi Ebata
      松本克平 Kappei Matsumoto
      富川晶宏 Akihiro Tomikawa
      笠原玲子 Reiko Kasahara
      三島ゆり子 Yuriko Mishima
      山本一郎 Ichir? Yamamoto
      南条新太郎 Shintar? Nanj?
      原圣四郎 Seishir? Hara
      佐藤织江 Orie Satoh
      鲇川泉 Izumi Ayukawa

◎标  签 日本 | 三隅研次 | 武士 | 日本电影 | 动作 | 若山富三郎 | 1972 | 剑戟

◎简  介

  黑锹小角(小林昭二 饰)率领的忍者军团行动失败,柳生鞘香(松尾嘉代 饰)带领其麾下的女子刺客军团继续追踪拜一刀父子的踪迹。
  
  阿波藩的蓝玉制造密法被幕府盗走,拜一刀(若山富三郎 饰)受聘刺杀盗走密法之人。一路上拜一刀父子不断受到柳生鞘香女子军团的袭击,但都一一化解。拜一刀登上护送之船,柳生鞘香亦尾随而来,有所察觉的保镖弁天来三兄弟放火烧船后逃走,拜一刀父子连同鞘香逃出生天。
  
  弁天来三兄弟逃至沙漠,击溃在此等候的阿波藩刺客,却最终无法避免与拜一刀的生死决战……

Video
ID : 1
Format : AVC
Format/Info : Advanced Video Codec
Format profile : [email protected]
Format settings : CABAC / 5 Ref Frames
Format settings, CABAC : Yes
Format settings, Reference frames : 5 frames
Codec ID : V_MPEG4/ISO/AVC
Duration : 1 h 21 min
Bit rate : 10.9 Mb/s
Width : 1 920 pixels
Height : 800 pixels
Display aspect ratio : 2.40:1
Frame rate mode : Constant
Frame rate : 23.976 (24000/1001/189150) FPS
Color space : YUV
Chroma subsampling : 4:2:0
Bit depth : 8 bits
Scan type : Progressive
Bits/(Pixel*Frame) : 0.296
Stream size : 6.20 GiB (95%)
Writing library : x264 core 148 r2705 3f5ed56
Encoding settings : cabac=1 / ref=5 / deblock=1:0:0 / analyse=0x3:0x133 / me=umh / subme=9 / psy=1 / psy_rd=1.00:0.00 / mixed_ref=1 / me_range=16 / chroma_me=1 / trellis=1 / 8x8dct=1 / cqm=0 / deadzone=21,11 / fast_pskip=0 / chroma_qp_offset=-2 / threads=18 / lookahead_threads=1 / sliced_threads=0 / nr=0 / decimate=1 / interlaced=0 / bluray_compat=0 / constrained_intra=0 / bframes=3 / b_pyramid=2 / b_adapt=2 / b_bias=0 / direct=3 / weightb=1 / open_gop=0 / weightp=2 / keyint=250 / keyint_min=23 / scenecut=40 / intra_refresh=0 / rc_lookahead=50 / rc=2pass / mbtree=1 / bitrate=10893 / ratetol=1.0 / qcomp=0.60 / qpmin=0 / qpmax=69 / qpstep=4 / cplxblur=20.0 / qblur=0.5 / ip_ratio=1.40 / aq=1:1.00
Language : English
Default : Yes
Forced : No

Audio
ID : 2
Format : FLAC
Format/Info : Free Lossless Audio Codec
Codec ID : A_FLAC
Duration : 1 h 21 min
Bit rate mode : Variable
Bit rate : 627 kb/s
Channel(s) : 1 channel
Channel layout : C
Sampling rate : 48.0 kHz
Frame rate : 11.719 FPS (4096 SPF)
Bit depth : 24 bits
Compression mode : Lossless
Stream size : 365 MiB (5%)
Writing library : libFLAC 1.2.1 (UTC 2007-09-17)
Language : Japanese
Default : Yes
Forced : No

Text
ID : 3
Format : UTF-8
Codec ID : S_TEXT/UTF8
Codec ID/Info : UTF-8 Plain Text
Duration : 1 h 20 min
Bit rate : 19 b/s
Count of elements : 349
Stream size : 11.9 KiB (0%)
Title : forced
Language : English
Default : Yes
Forced : Yes

Menu
00:00:00.000 : en:00:00:00.000
00:03:22.369 : en:00:03:22.369
00:05:17.025 : en:00:05:17.025
00:11:09.168 : en:00:11:09.168
00:16:26.444 : en:00:16:26.444
00:21:14.732 : en:00:21:14.732
00:25:09.174 : en:00:25:09.174
00:31:08.325 : en:00:31:08.325
00:34:34.322 : en:00:34:34.322
00:36:08.458 : en:00:36:08.458
00:40:43.691 : en:00:40:43.691
00:45:56.253 : en:00:45:56.253
00:49:28.799 : en:00:49:28.799
00:54:22.759 : en:00:54:22.759
00:56:28.802 : en:00:56:28.802
01:02:23.365 : en:01:02:23.365
01:07:33.383 : en:01:07:33.383
01:13:05.172 : en:01:13:05.172
01:18:37.296 : en:01:18:37.296





1 个附件 售价 大小 下载 时间

Lone.Wolf.and.Cub.Baby.Cart.at.the.River.Styx.1972.1080p.BluRay.x264-USURY.zip 0 金币 132.79K 280 次 3天前

#1楼
发帖时间:2020-10-18 12:00:52   |   回复数:2
liyouchai
隐世仙人♂
谢谢楼主分享资源
3天前 #2楼
kola13
武林盟主
感谢分享
3天前 #3楼
游客组