q3r3
武林盟主

[更 早] [其他] [剧情] [BD-1080P] 奥赛罗 Othello.1951.REMASTERED.1080p.BluRay.x264-USURY 8.75GB

-->

帖子完整标题:奥赛罗 Othello.1951.REMASTERED.1080p.BluRay.x264-USURY 8.75GB



◎译  名 奥赛罗
◎片  名 The Tragedy of Othello: The Moor of Venice
◎年  代 1951
◎产  地 美国,意大利,法国,摩洛哥
◎类  别 剧情 / 爱情
◎语  言 英语
◎上映日期 1951-11-28(意大利)
◎IMDb评分 7.6/10 from 7453 users
◎IMDb链接 https://www.imdb.com/title/tt0045251/
◎豆瓣评分 7.8/10 from 1182 users
◎豆瓣链接 https://movie.douban.com/subject/1296289/
◎片  长 90 分钟
◎导  演 奥逊·威尔斯 Orson Welles
◎编  剧 莎士比亚 William Shakespeare / 奥逊·威尔斯 Orson Welles / 让·萨沙 Jean Sacha
◎主  演 米歇尔·麦克利亚姆莫伊尔 Micheál MacLiammóir
      罗伯托·库特 Robert Coote
      奥逊·威尔斯 Orson Welles
      苏珊·克卢捷 Suzanne Cloutier
      希尔顿·爱德华兹 Hilton Edwards
      尼古拉斯·布鲁斯 Nicholas Bruce
      迈克尔·劳伦斯 Michael Laurence
      费伊·康普顿 Fay Compton
      多利斯·道灵 Doris Dowling
      琼·芳登 Joan Fontaine
      约瑟夫·科顿 Joseph Cotten

◎标  签 美国 | 莎士比亚 | 奥逊·威尔斯 | OrsonWelles | 金棕榈 | 1950s | 奥逊.威尔斯 | 1952

◎简  介

  奥赛罗(奥逊·威尔斯 Orson Welles 饰)生来高大威武,是一员猛将。某日,他遇见了元老的女儿苔丝狄蒙娜(Suzanne Cloutier 饰),一见钟情的两人迅速坠入了爱河。然而,巨大的年龄差距让两人的爱情遭到了众人的强烈反对,婚事亦遥遥无期,两个相爱的人决定私定终身。
  
  阴险狡诈的伊阿古(Micheál MacLiammóir 饰)将风头正劲的奥赛罗视为眼中钉,企图除之而后快。在向元老告密的阴谋失败之后,伊阿古开始挑拨奥赛罗和苔丝狄蒙娜之间的感情,他伪造了副将凯斯奥(Michael Laurence 饰)和苔丝狄蒙娜之间的定情信物,使得奥赛罗信以为真。愤怒的奥赛罗将苔丝狄蒙娜掐死,却在之后得知了整个事件的真相,悲痛和悔恨之中,奥赛罗选择了死亡。

◎获奖情况

  第5届戛纳电影节 ?(1952)
  主竞赛单元金棕榈奖 奥逊·威尔斯

Video
ID : 1
Format : AVC
Format/Info : Advanced Video Codec
Format profile : [email protected]
Format settings : CABAC / 4 Ref Frames
Format settings, CABAC : Yes
Format settings, Reference frames : 4 frames
Codec ID : V_MPEG4/ISO/AVC
Duration : 1 h 30 min
Bit rate : 13.1 Mb/s
Width : 1 488 pixels
Height : 1 080 pixels
Display aspect ratio : 1.378
Frame rate mode : Constant
Frame rate : 23.976 (24000/1001/189150) FPS
Color space : YUV
Chroma subsampling : 4:2:0
Bit depth : 8 bits
Scan type : Progressive
Bits/(Pixel*Frame) : 0.341
Stream size : 8.35 GiB (95%)
Writing library : x264 core 152 r2851 ba24899
Encoding settings : cabac=1 / ref=4 / deblock=1:-3:-3 / analyse=0x3:0x133 / me=umh / subme=9 / psy=1 / psy_rd=1.00:0.00 / mixed_ref=1 / me_range=16 / chroma_me=1 / trellis=2 / 8x8dct=1 / cqm=0 / deadzone=21,11 / fast_pskip=0 / chroma_qp_offset=-2 / threads=18 / lookahead_threads=1 / sliced_threads=0 / nr=0 / decimate=1 / interlaced=0 / bluray_compat=0 / constrained_intra=0 / bframes=3 / b_pyramid=2 / b_adapt=1 / b_bias=0 / direct=3 / weightb=1 / open_gop=0 / weightp=2 / keyint=240 / keyint_min=24 / scenecut=40 / intra_refresh=0 / rc_lookahead=50 / rc=2pass / mbtree=1 / bitrate=13140 / ratetol=1.0 / qcomp=0.60 / qpmin=0 / qpmax=69 / qpstep=4 / cplxblur=20.0 / qblur=0.5 / ip_ratio=1.40 / aq=1:1.00
Language : English
Default : Yes
Forced : No

Audio
ID : 2
Format : FLAC
Format/Info : Free Lossless Audio Codec
Codec ID : A_FLAC
Duration : 1 h 30 min
Bit rate mode : Variable
Bit rate : 621 kb/s
Channel(s) : 1 channel
Channel layout : C
Sampling rate : 48.0 kHz
Frame rate : 11.719 FPS (4096 SPF)
Bit depth : 24 bits
Compression mode : Lossless
Stream size : 404 MiB (5%)
Writing library : libFLAC 1.2.1 (UTC 2007-09-17)
Language : English
Default : Yes
Forced : No

Text #1
ID : 3
Format : UTF-8
Codec ID : S_TEXT/UTF8
Codec ID/Info : UTF-8 Plain Text
Duration : 1 h 24 min
Bit rate : 68 b/s
Count of elements : 1169
Stream size : 42.1 KiB (0%)
Title : English
Language : English
Default : No
Forced : No

Text #2
ID : 4
Format : UTF-8
Codec ID : S_TEXT/UTF8
Codec ID/Info : UTF-8 Plain Text
Duration : 1 h 26 min
Bit rate : 69 b/s
Count of elements : 1245
Stream size : 43.9 KiB (0%)
Title : English SDH
Language : English
Default : No
Forced : No

Menu
00:00:00.000 : en:00:00:00.000
00:04:28.935 : en:00:04:28.935
00:05:27.661 : en:00:05:27.661
00:13:31.019 : en:00:13:31.019
00:16:14.682 : en:00:16:14.682
00:19:23.037 : en:00:19:23.037
00:23:40.753 : en:00:23:40.753
00:28:48.143 : en:00:28:48.143
00:32:56.600 : en:00:32:56.600
00:40:58.706 : en:00:40:58.706
00:45:41.197 : en:00:45:41.197
00:52:04.955 : en:00:52:04.955
00:57:47.464 : en:00:57:47.464
01:00:23.286 : en:01:00:23.286
01:03:37.063 : en:01:03:37.063
01:07:14.864 : en:01:07:14.864
01:12:41.983 : en:01:12:41.983
01:15:15.428 : en:01:15:15.428
01:20:44.965 : en:01:20:44.965
01:26:06.703 : en:01:26:06.703
01:29:53.430 : en:01:29:53.430





1 个附件 售价 大小 下载 时间

Othello.1951.REMASTERED.1080p.BluRay.x264-USURY.zip 0 金币 88.96K 189 次 3天前

#1楼
发帖时间:2020-10-18 12:03:51   |   回复数:1
liyouchai
隐世仙人♂
谢谢楼主分享资源
3天前 #2楼
游客组