travismk
一代宗师

[更 早] [其他] [剧情] [BD-1080P] 聽不到的說话 Silent.Love.1986.CHINESE.1080p.BluRay.x264.FLAC.2.0-NOGRP 9.14GB

-->

帖子完整标题:聽不到的說话 Silent.Love.1986.CHINESE.1080p.BluRay.x264.FLAC.2.0-NOGRP 9.14GB



◎译  名 听不到的说话/Silent Love/The Unheard Talk/Ting bat do dik suet wa
◎片  名 聽不到的說话
◎年  代 1986
◎产  地 中国香港
◎类  别 剧情
◎语  言 粤语
◎上映日期 
◎IMDb评分 7.3/10 from 36 users
◎IMDb链接 https://www.imdb.com/title/tt0126663/
◎豆瓣评分 7.5/10 from 1021 users
◎豆瓣链接 https://movie.douban.com/subject/1306783/
◎片  长 88分钟
◎导  演 姜大卫 David Chiang
◎编  剧 岸西 Ivy Ho / 邵国华 Kwok Wah Siu
◎主  演 马斯晨 Season Ma
      刘青云 Sean Lau
      黄斌 Ronald Wong
      陈敬 Jing Chen
      张耀扬 Roy Cheung
      程守一 Billy Sau Yat Ching
      樊少皇 Siu-Wong Fan
      洪新南 Hsin Nan Hung
      林聪 Chung Lam
      ?刘济民 Chi Ming Lau
      谢芳 Fang Xie
      叶辉煌 Simon F.W. Yip
      凌志华 Chi Wah Ling

◎标  签 刘青云 | 香港 | 姜大卫 | 香港电影 | 马斯晨 | 1986 | 张耀扬 | 剧情

◎简  介

  代朋友入狱多年的麦基(刘青云)刑满释放,左顾右盼无人来接。相比,与他同时出狱的少年阿飞豹仔(黄斌)则有好友香鸡(马斯晨)、小龙(樊少皇)、长颈及肥龟来接。这几人组成了以香鸡为首的聋哑扒手小团体,常用可以博市民同情的招数偷窃钱包、躲过劫难,另一个少年犯罪集团是他们的宿敌。麦基因救香鸡一命与她认识,又通过她认识靠出卖肉体养活丈夫的亚莲(苏祖儿)。
  
  麦基这日在香鸡的陪伴下去找朋友,已经发黄腾达的朋友全不记他曾帮自己顶罪,只将他视作瘟神,匆匆掏出几张钞票将他打发,其后更是找来警察公开表示请勿再扰。这令麦基异常痛苦,早对他生出爱意的香鸡看不过,偷走麦基朋友装有多张信用卡的钱包,此举惹下祸端,香鸡、豹仔随即陷入被警察、宿敌双重追击的境地,而无意间瞥见麦基与亚连的恩爱画面时,香鸡更是瞬间心死。

◎获奖情况

  第6届香港电影金像奖 ?(1987)
  最佳女主角(提名) 马斯晨

Video
ID : 1
Format : AVC
Format/Info : Advanced Video Codec
Format profile : [email protected]
Format settings : CABAC / 4 Ref Frames
Format settings, CABAC : Yes
Format settings, Reference frames : 4 frames
Codec ID : V_MPEG4/ISO/AVC
Duration : 1 h 31 min
Bit rate : 13.9 Mb/s
Width : 1 920 pixels
Height : 1 080 pixels
Display aspect ratio : 16:9
Frame rate mode : Constant
Frame rate : 24.000 FPS
Color space : YUV
Chroma subsampling : 4:2:0
Bit depth : 8 bits
Scan type : Progressive
Bits/(Pixel*Frame) : 0.278
Stream size : 8.86 GiB (97%)
Writing library : x264 core 157 r2932 303c484
Encoding settings : cabac=1 / ref=4 / deblock=1:-3:-3 / analyse=0x3:0x133 / me=umh / subme=11 / psy=1 / psy_rd=1.02:0.00 / mixed_ref=1 / me_range=32 / chroma_me=1 / trellis=2 / 8x8dct=1 / cqm=0 / deadzone=21,11 / fast_pskip=0 / chroma_qp_offset=-2 / threads=34 / lookahead_threads=8 / sliced_threads=0 / nr=0 / decimate=0 / interlaced=0 / bluray_compat=0 / constrained_intra=0 / bframes=16 / b_pyramid=2 / b_adapt=2 / b_bias=0 / direct=3 / weightb=1 / open_gop=0 / weightp=2 / keyint=250 / keyint_min=24 / scenecut=40 / intra_refresh=0 / rc_lookahead=250 / rc=crf / mbtree=0 / crf=22.7 / qcomp=0.60 / qpmin=0 / qpmax=69 / qpstep=4 / vbv_maxrate=62500 / vbv_bufsize=78125 / crf_max=0.0 / nal_hrd=none / filler=0 / ip_ratio=1.30 / pb_ratio=1.20 / aq=3:0.80
Language : English
Default : Yes
Forced : No
Color range : Limited
Color primaries : BT.709
Matrix coefficients : BT.709

Audio
ID : 2
Format : FLAC
Format/Info : Free Lossless Audio Codec
Codec ID : A_FLAC
Duration : 1 h 31 min
Bit rate mode : Variable
Bit rate : 425 kb/s
Channel(s) : 2 channels
Channel layout : L R
Sampling rate : 48.0 kHz
Frame rate : 11.719 FPS (4096 SPF)
Bit depth : 16 bits
Compression mode : Lossless
Stream size : 278 MiB (3%)
Writing library : libFLAC 1.2.1 (UTC 2007-09-17)
Language : Chinese
Default : Yes
Forced : No

Text #1
ID : 3
Format : UTF-8
Codec ID : S_TEXT/UTF8
Codec ID/Info : UTF-8 Plain Text
Duration : 1 h 29 min
Bit rate : 36 b/s
Count of elements : 1059
Stream size : 23.8 KiB (0%)
Title : SRT
Language : English
Default : Yes
Forced : No

Text #2
ID : 4
Format : PGS
Muxing mode : zlib
Codec ID : S_HDMV/PGS
Codec ID/Info : Picture based subtitle format used on BDs/HD-DVDs
Duration : 59 min 52 s
Bit rate : 1 152 b/s
Count of elements : 132
Stream size : 505 KiB (0%)
Language : English
Default : No
Forced : No

Text #3
ID : 5
Format : PGS
Muxing mode : zlib
Codec ID : S_HDMV/PGS
Codec ID/Info : Picture based subtitle format used on BDs/HD-DVDs
Duration : 59 min 52 s
Bit rate : 1 152 b/s
Count of elements : 132
Stream size : 505 KiB (0%)
Language : Chinese
Default : No
Forced : No

Text #4
ID : 6
Format : PGS
Muxing mode : zlib
Codec ID : S_HDMV/PGS
Codec ID/Info : Picture based subtitle format used on BDs/HD-DVDs
Duration : 59 min 52 s
Bit rate : 1 152 b/s
Count of elements : 132
Stream size : 505 KiB (0%)
Language : Chinese
Default : No
Forced : No

Menu
00:00:00.000 : en:Chapter 1
00:07:31.125 : en:Chapter 2
00:13:30.500 : en:Chapter 3
00:19:56.167 : en:Chapter 4
00:27:09.750 : en:Chapter 5
00:37:57.542 : en:Chapter 6
00:46:19.708 : en:Chapter 7
00:52:55.708 : en:Chapter 8
00:58:25.500 : en:Chapter 9
01:06:17.625 : en:Chapter 10
01:14:36.750 : en:Chapter 11
01:25:54.625 : en:Chapter 12





1 个附件 售价 大小 下载 时间

Silent.Love.1986.CHINESE.1080p.BluRay.x264.FLAC.2.0-NOGRP.zip 0 金币 46.35K 469 次 14天前

#1楼
发帖时间:2021-04-08 08:44:09   |   回复数:1
liyouchai
隐世仙人♂
谢谢楼主分享资源
14天前 #2楼
游客组