travismk
一代宗师

[2019] [其他] [剧情] [BD-1080P] 红心女王 Queen.Of.Hearts.2019.DANISH.1080p.BluRay.x264.DD5.1-BdC 10.91GB

-->

帖子完整标题:红心女王 Queen.Of.Hearts.2019.DANISH.1080p.BluRay.x264.DD5.1-BdC 10.91GB



◎译  名 红心女王/Queen of Hearts/女王诱罪(港)/烈火偷情(台)
◎片  名 Dronningen
◎年  代 2019
◎产  地 丹麦,瑞典
◎类  别 剧情 / 情色
◎语  言 丹麦语,瑞典语
◎上映日期 2019-01-26(圣丹斯电影节) / 2019-03-28(丹麦) / 2019-04-26(瑞典)
◎IMDb评分 7.1/10 from 8411 users
◎IMDb链接 https://www.imdb.com/title/tt8378126/
◎豆瓣评分 7.2/10 from 8207 users
◎豆瓣链接 https://movie.douban.com/subject/30234891/
◎片  长 127分钟
◎导  演 梅尔·图琪 May el-Toukhy
◎编  剧 玛伦·路易丝·凯恩 Maren Louise K?ehne / 梅尔·图琪 May el-Toukhy
◎主  演 崔娜·蒂虹 Trine Dyrholm
      古斯塔夫·林德 Gustav Lindh
      马格努斯·克雷佩 Magnus Krepper
      丽芙·埃斯玛·丹妮曼 Liv Esm?r Dannemann
      西莉亚·埃斯玛·丹妮曼 Silja Esm?r Dannemann
      斯坦·吉登克恩 Stine Gyldenkerne
      普雷本·克里斯滕森 Preben Kristensen
      弗兰丹尼可·达尔·汉森 Frederikke Dahl Hansen
      埃拉·索尔加德 Ella Solgaard
      卡拉·菲利普·罗德 Carla Philip R?der
      彼得·霍里 Peter Khouri
      马德斯·克纳伯格 Mads Knarreborg
      玛丽·达尔斯加德 Marie Dalsgaard
      埃里亚斯·布德·克里斯滕森 Elias Budde Christensen
      诺埃尔·布洪·基茨纳 Noel Bouhon Kiertzner
      马蒂亚斯·拉贝克 Mathias Rahb?k
      内西·贝克 Nessie Beik
      斯坦利·巴卡尔 Stanley Bakar

◎标  签 伦理 | 丹麦 | 情色 | 人性 | 欲望 | 剧情 | 2019 | 瑞典

◎简  介

  安妮(崔娜·蒂虹 Trine Dyrholm 饰)是一名经验非常丰富的律师,擅长的领域是青少年性侵案。她和丈夫皮特(马格努斯·克雷佩 Magnus Krepper 饰)结婚多年,夫妻两人之间的感情非常的稳定。在外人眼中,安妮是一位事业和爱情双丰收的人生赢家。
  
  可是,安妮的生活在皮特和前妻所生的儿子古斯塔夫(古斯塔夫·林德 Gustav Lindh 饰)搬来和他们同住的那一刻起崩塌了。古斯塔夫的个性粗暴而又叛逆,对安妮这位继母毫无尊重可言,可就是这样的针锋相对让安妮的内心里荡漾起了别样的波纹,在古斯塔夫的身上,她找回了久违的激情。最终,安妮和古斯塔夫之间逾越了伦理道德的红线,而为了挽救这段关系给自己的家庭和事业带来的毁灭性的破坏,安妮决定利用自己的专业知识,牺牲古斯塔夫。

◎获奖情况

  第32届欧洲电影奖 ?(2019)
  最佳女主角(提名) 崔娜·蒂虹
  
  第35届圣丹斯电影节 ?(2019)
  评审团大奖世界电影单元剧情片(提名) 梅尔·图琪
  观众奖世界电影单元剧情片 梅尔·图琪
  
  第48届鹿特丹国际电影节 ?(2019)
  大银幕奖(提名) 梅尔·图琪
  
  第43届香港国际电影节 ?(2019)
  新秀电影竞赛火鸟电影大奖(世界)(提名)
  新秀电影竞赛最佳男演员(世界) 古斯塔夫·林德

Video
ID : 1
Format : AVC
Format/Info : Advanced Video Codec
Format profile : [email protected]
Format settings : CABAC / 5 Ref Frames
Format settings, CABAC : Yes
Format settings, Reference frames : 5 frames
Codec ID : V_MPEG4/ISO/AVC
Duration : 2 h 7 min
Bit rate : 11.6 Mb/s
Width : 1 920 pixels
Height : 804 pixels
Display aspect ratio : 2.40:1
Frame rate mode : Constant
Frame rate : 24.000 FPS
Color space : YUV
Chroma subsampling : 4:2:0
Bit depth : 8 bits
Scan type : Progressive
Bits/(Pixel*Frame) : 0.313
Stream size : 10.3 GiB (95%)
Writing library : x264 core 161 r3018 db0d417
Encoding settings : cabac=1 / ref=5 / deblock=1:-3:-3 / analyse=0x3:0x113 / me=umh / subme=10 / psy=1 / psy_rd=1.05:0.00 / mixed_ref=1 / me_range=32 / chroma_me=1 / trellis=2 / 8x8dct=1 / cqm=0 / deadzone=21,11 / fast_pskip=0 / chroma_qp_offset=-2 / threads=12 / lookahead_threads=2 / sliced_threads=0 / nr=0 / decimate=0 / interlaced=0 / bluray_compat=0 / constrained_intra=0 / bframes=9 / b_pyramid=2 / b_adapt=2 / b_bias=0 / direct=3 / weightb=1 / open_gop=0 / weightp=2 / keyint=240 / keyint_min=24 / scenecut=40 / intra_refresh=0 / rc_lookahead=50 / rc=2pass / mbtree=0 / bitrate=11599 / ratetol=1.0 / qcomp=0.65 / qpmin=0 / qpmax=69 / qpstep=4 / cplxblur=20.0 / qblur=0.5 / vbv_maxrate=50000 / vbv_bufsize=62500 / nal_hrd=none / filler=0 / ip_ratio=1.30 / pb_ratio=1.20 / aq=3:0.80
Default : Yes
Forced : No
Color range : Limited
Color primaries : BT.709
Transfer characteristics : BT.709
Matrix coefficients : BT.709

Audio
ID : 2
Format : AC-3
Format/Info : Audio Coding 3
Commercial name : Dolby Digital
Codec ID : A_AC3
Duration : 2 h 7 min
Bit rate mode : Constant
Bit rate : 640 kb/s
Channel(s) : 6 channels
Channel layout : L R C LFE Ls Rs
Sampling rate : 48.0 kHz
Frame rate : 31.250 FPS (1536 SPF)
Compression mode : Lossy
Stream size : 584 MiB (5%)
Language : Danish
Service kind : Complete Main
Default : Yes
Forced : No

Text #1
ID : 3
Format : UTF-8
Codec ID : S_TEXT/UTF8
Codec ID/Info : UTF-8 Plain Text
Duration : 1 h 59 min
Bit rate : 34 b/s
Count of elements : 812
Stream size : 30.2 KiB (0%)
Language : English
Default : Yes
Forced : No

Text #2
ID : 4
Format : PGS
Muxing mode : zlib
Codec ID : S_HDMV/PGS
Codec ID/Info : Picture based subtitle format used on BDs/HD-DVDs
Duration : 2 h 5 min
Bit rate : 7 015 b/s
Count of elements : 1968
Stream size : 6.29 MiB (0%)
Language : German
Default : No
Forced : No

Menu
00:00:00.000 : en:00:00:00.000
00:11:31.125 : en:00:11:31.125
00:26:10.458 : en:00:26:10.458
00:36:49.167 : en:00:36:49.167
00:48:38.625 : en:00:48:38.625
00:58:57.625 : en:00:58:57.625
01:11:13.667 : en:01:11:13.667
01:22:35.167 : en:01:22:35.167
01:36:24.958 : en:01:36:24.958
01:50:20.833 : en:01:50:20.833
01:55:50.750 : en:01:55:50.750
02:03:16.833 : en:02:03:16.833





1 个附件 售价 大小 下载 时间

Queen.Of.Hearts.2019.DANISH.1080p.BluRay.x264.DD5.1-BdC.zip 0 金币 55.28K 2660 次 14天前

#1楼
发帖时间:2021-04-08 08:48:15   |   回复数:0
游客组