as3722862
武林高手

[2019] [欧美] [科幻] [纯净版] [BT下载][终结者:黑暗命运][HD-MP4/10GB][官方中英双字幕][[1080P]]

-->



◎译  名 终结者:黑暗命运 / Terminator 6 / 未来战士:黑暗命运(港) / 终结者2019 / 终结者6 / 终结者6:黑暗命运 / 终结者6:黑暗宿命 / 魔鬼终结者:黑暗宿命(台)
◎片  名 Terminator: Dark Fate
◎年  代 2019
◎产  地 美国 / 中国大陆
◎类  别 动作 / 科幻 / 冒险
◎语  言 英语
◎上映日期 2019-10-23(法国) / 2019-11-01(美国/中国大陆)
◎IMDb评分  6.5/10 from 52213 users
◎IMDb链接  https://www.imdb.com/title/tt6450804
◎豆瓣评分 7.1/10 from 79843 users
◎豆瓣链接 https://movie.douban.com/subject/27109633/
◎片  长 128分钟
◎导  演 蒂姆·米勒 Tim Miller
◎编  剧 詹姆斯·卡梅隆 James Cameron / 查尔斯·H·伊格里 Charles H. Eglee / 乔什·弗莱德曼 Josh Friedman / 大卫·S·高耶 David S. Goyer / 贾斯汀·罗德斯 Justin Rhodes / 比利·雷 Billy Ray / 盖尔·安妮·赫德 Gale Anne Hurd
◎主  演 麦肯兹·戴维斯 Mackenzie Davis
       娜塔利娅·雷耶斯 Natalia Reyes
       琳达·汉密尔顿 Linda Hamilton
       阿诺·施瓦辛格 Arnold Schwarzenegger
       加布里埃尔·鲁纳 Gabriel Luna
       迪耶戈·博内塔 Diego Boneta
       恩里克·阿尔切 Enrique Arce
       特里斯坦·乌罗阿 Tristán Ulloa
       艾丽西娅·博拉切罗 Alicia Borrachero
       布雷特·阿扎尔 Brett Azar
       史蒂芬·克里 Steven Cree
       罗谢尔·尼尔 Rochelle Neil
       弗雷泽·杰姆斯 Fraser James
       克劳迪娅·特鲁希略 Claudia Trujillo
       比约恩·弗赖贝格 Björn Freiberg
       约翰·盖蒂尔 John Gettier
       彼得·奥蒙德 Peter Ormond
       Lorna Brown
       Peter Schueller


◎标  签 科幻 | 动作 | 美国 | 机器人 | 2019 | 情怀 | 冒险 | 剧情

◎简  介  

  《终结者2:审判日》发生的27年后,由于未来天网派来T-800成功杀死年幼的约翰,以致令未来产生变化,一个全新进化的液态金属终结者从未来派出,目的是追杀持有关键讯息的丹妮·拉莫斯、半生化人葛蕾丝和她的朋友。这使莎拉·康纳以及成功杀死约翰的T800终结者前来帮助她们一行人,以共同为了人类的未来而战。

◎获奖情况  

  第6届豆瓣电影年度榜单(2019)
  评分最高的科幻/动作片(提名)

General

Unique ID                   : 246474663810678071598653138296961944712 (0xB96D4B2686163FE887D474FA0B96CC88)

Complete name               : D:\bt\[微信公众号:匆匆电影]终结者:黑暗命运 Terminator.Dark.Fate.2019.HD1080P.DD5.1.x264.官方中英双字幕.ENG.CHS.纯净版.mp4

Format                      : Matroska

Format version              : Version 2

File size                   : 9.52 GiB

Duration                    : 2 h 8 min

Overall bit rate            : 10.6 Mb/s

Encoded date                : UTC 2020-01-15 10:58:29

Writing application         : mkvmerge v5.2.1 ('A Far Off Place') built on Jan  2 2012 23:21:10

Writing library             : libebml v1.2.3 + libmatroska v1.3.0

FileExtension_Invalid       : mkv mk3d mka mks


Video

ID                          : 1

Format                      : AVC

Format/Info                 : Advanced Video Codec

Format profile              : [email protected]

Format settings             : CABAC / 4 Ref Frames

Format settings, CABAC      : Yes

Format settings, ReFrames   : 4 frames

Muxing mode                 : Header stripping

Codec ID                    : V_MPEG4/ISO/AVC

Duration                    : 2 h 8 min

Bit rate                    : 9 999 kb/s

Width                       : 1 920 pixels

Height                      : 1 080 pixels

Display aspect ratio        : 16:9

Frame rate mode             : Constant

Frame rate                  : 23.976 (24000/1001) FPS

Color space                 : YUV

Chroma subsampling          : 4:2:0

Bit depth                   : 8 bits

Scan type                   : Progressive

Bits/(Pixel*Frame)          : 0.201

Stream size                 : 8.76 GiB (92%)

Title                       : 【关注微信公众号:匆匆电影  微信号 sc6788sc 朋友圈分享】

Writing library             : x264 core 120 r2164 da19765

Encoding settings           : cabac=1 / ref=4 / deblock=1:-4:-3 / analyse=0x3:0x133 / me=hex / subme=7 / psy=1 / psy_rd=0.00:0.00 / mixed_ref=1 / me_range=16 / chroma_me=1 / trellis=2 / 8x8dct=1 / cqm=0 / deadzone=21,11 / fast_pskip=0 / chroma_qp_offset=0 / threads=12 / sliced_threads=0 / nr=0 / decimate=1 / interlaced=0 / bluray_compat=0 / constrained_intra=0 / bframes=3 / b_pyramid=2 / b_adapt=1 / b_bias=0 / direct=1 / weightb=1 / open_gop=0 / weightp=2 / keyint=240 / keyint_min=23 / scenecut=40 / intra_refresh=0 / rc_lookahead=40 / rc=2pass / mbtree=1 / bitrate=9999 / ratetol=1.0 / qcomp=0.60 / qpmin=0 / qpmax=69 / qpstep=4 / cplxblur=20.0 / qblur=0.5 / ip_ratio=1.40 / aq=1:1.00

Default                     : Yes

Forced                      : No


Audio

ID                          : 2

Format                      : AC-3

Format/Info                 : Audio Coding 3

Commercial name             : Dolby Digital

Muxing mode                 : Header stripping

Codec ID                    : A_AC3

Duration                    : 2 h 8 min

Bit rate mode               : Constant

Bit rate                    : 640 kb/s

Channel(s)                  : 6 channels

Channel layout              : L R C LFE Ls Rs

Sampling rate               : 48.0 kHz

Frame rate                  : 31.250 FPS (1536 SPF)

Bit depth                   : 16 bits

Compression mode            : Lossy

Stream size                 : 586 MiB (6%)

Title                       : 【关注微信公众号:匆匆电影  微信号 sc6788sc 朋友圈分享】

Service kind                : Complete Main

Default                     : Yes

Forced                      : No


ed2k://|file|[%E5%BE%AE%E4%BF%A1%E5%85%AC%E4%BC%97%E5%8F%B7%EF%BC%9A%E5%8C%86%E5%8C%86%E7%94%B5%E5%BD%B1]%E7%BB%88%E7%BB%93%E8%80%85%EF%BC%9A%E9%BB%91%E6%9A%97%E5%91%BD%E8%BF%90%20Terminator.Dark.Fate.2019.HD1080P.DD5.1.x264.%E5%AE%98%E6%96%B9%E4%B8%AD%E8%8B%B1%E5%8F%8C%E5%AD%97%E5%B9%95.ENG.CHS.%E7%BA%AF%E5%87%80%E7%89%88.mp4|10221740387|724971631E06B00A49C94D07CFBFE7C9|h=NKBWDXHBAVP2UMWJQFZS7OWHLFRUHORW|/




#1楼
发帖时间:2020-01-15 19:04:11   |   回复数:8
kissstar110
小有名气
谢谢分享
3天前 #2楼
古月
小有名气
老妈回来了?
3天前 #3楼
笑凡
一派掌门
谢谢分享
3天前 #4楼
cliff168
一派掌门
感谢分享好东西
3天前 #5楼
911degrees
隐世仙人♂
非常感谢,谢谢分享
3天前 #6楼
about456
一代宗师
谢谢搂主分享!
3天前 #7楼
GNing
武林高手
thank you
3天前 #8楼
ALLEN820213
隐世仙人♂
感谢楼主分享!!!
2天前 #9楼
游客组