travismk
一代宗师

[2014] [欧美] [其他] [WEB-1080P] 治疗效果 The.Healing.Effect.2014.1080p.AMZN.WEBRip.DDP2.0.x264-Candial 2.49GB

-->

帖子完整标题:治疗效果 The.Healing.Effect.2014.1080p.AMZN.WEBRip.DDP2.0.x264-Candial 2.49GB



◎译  名 治疗效果
◎片  名 The Healing Effect
◎年  代 2014
◎产  地 美国
◎类  别 纪录片
◎语  言 英语
◎上映日期 2014-04-28
◎豆瓣评分 /10 from 0 users
◎豆瓣链接 https://movie.douban.com/subject/26759109/
◎片  长 50分钟
◎主  演 Brad Case
      夏绿蒂·葛森 Charlotte Gerson

◎简  介

  The Healing Effect movie is a new documentary about the healing power of food. The film features cutting edge interviews with best selling authors and experts such as John Robbins, Joel Fuhrman, David Wolfe, Charlotte Gerson, Daphne Miller, John McDougall, Philip McCluskey, John Bagnulo and many more. The movie explores the power of prevention; why bad genes are not your destiny; food and lifestyle secrets from the healthiest, longest lived people on the planet; and simple steps to get started right now in changing your life, one bite at a time.

Video
ID : 1
Format : AVC
Format/Info : Advanced Video Codec
Format profile : [email protected]
Format settings : CABAC / 4 Ref Frames
Format settings, CABAC : Yes
Format settings, Reference frames : 4 frames
Codec ID : V_MPEG4/ISO/AVC
Duration : 50 min 40 s
Bit rate mode : Variable
Bit rate : 6 813 kb/s
Maximum bit rate : 15.0 Mb/s
Width : 1 920 pixels
Height : 1 080 pixels
Display aspect ratio : 16:9
Frame rate mode : Constant
Frame rate : 23.976 (24000/1001/189150) FPS
Color space : YUV
Chroma subsampling : 4:2:0
Bit depth : 8 bits
Scan type : Progressive
Bits/(Pixel*Frame) : 0.137
Stream size : 2.41 GiB (97%)
Writing library : x264 core 148 r2623 d5b2374
Encoding settings : cabac=1 / ref=4 / deblock=1:-1:-1 / analyse=0x3:0x133 / me=umh / subme=9 / psy=1 / psy_rd=1.00:0.15 / mixed_ref=1 / me_range=24 / chroma_me=1 / trellis=2 / 8x8dct=1 / cqm=0 / deadzone=21,11 / fast_pskip=1 / chroma_qp_offset=-3 / threads=34 / lookahead_threads=5 / sliced_threads=0 / nr=150 / decimate=1 / interlaced=0 / bluray_compat=0 / constrained_intra=0 / bframes=8 / b_pyramid=2 / b_adapt=2 / b_bias=0 / direct=3 / weightb=1 / open_gop=0 / weightp=2 / keyint=120 / keyint_min=61 / scenecut=0 / intra_refresh=0 / rc_lookahead=120 / rc=crf / mbtree=1 / crf=18.0 / qcomp=0.60 / qpmin=0 / qpmax=69 / qpstep=4 / vbv_maxrate=15000 / vbv_bufsize=31250 / crf_max=0.0 / nal_hrd=vbr / filler=0 / ip_ratio=1.40 / aq=3:1.00
Default : Yes
Forced : No
Color range : Limited
Color primaries : BT.709
Transfer characteristics : BT.709
Matrix coefficients : BT.709

Audio
ID : 2
Format : E-AC-3
Format/Info : Enhanced AC-3
Commercial name : Dolby Digital Plus
Codec ID : A_EAC3
Duration : 50 min 40 s
Bit rate mode : Constant
Bit rate : 224 kb/s
Channel(s) : 2 channels
Channel layout : L R
Sampling rate : 48.0 kHz
Frame rate : 31.250 FPS (1536 SPF)
Compression mode : Lossy
Stream size : 81.2 MiB (3%)
Language : English
Service kind : Complete Main
Default : Yes
Forced : No

Text
ID : 3
Format : UTF-8
Codec ID : S_TEXT/UTF8
Codec ID/Info : UTF-8 Plain Text
Duration : 50 min 36 s
Bit rate : 117 b/s
Count of elements : 1165
Stream size : 43.4 KiB (0%)
Language : English
Default : Yes
Forced : No





1 个附件 售价 大小 下载 时间

The.Healing.Effect.2014.1080p.AMZN.WEBRip.DDP2.0.x264-Candial.torrent 0 金币 25.56K 322 次 3天前

#1楼
发帖时间:2021-06-10 22:51:32   |   回复数:1
liyouchai
隐世仙人♂
谢谢楼主分享资源
3天前 #2楼
游客组