q3r3
武林盟主

[更 早] [其他] [剧情] [BD-720P] 苏州河 Suzhou.River.2000.720p.BluRay.x264-USURY 4.46GB

-->

帖子完整标题:苏州河 Suzhou.River.2000.720p.BluRay.x264-USURY 4.46GB



◎译  名 Suzhou River
◎片  名 苏州河
◎年  代 2000
◎产  地 中国大陆,德国
◎类  别 剧情 / 爱情
◎语  言 汉语普通话
◎上映日期 2000-09-07(中国香港)
◎豆瓣评分 8.1/10 from 167188 users
◎豆瓣链接 https://movie.douban.com/subject/1299661/
◎片  长 83 分钟
◎导  演 娄烨 Ye Lou
◎编  剧 娄烨 Ye Lou
◎主  演 周迅 Xun Zhou
      贾宏声 Jia Hongsheng
      华仲凯 Zhongkai Hua
      姚安濂 Anlian Yao
      耐安 An Nai

◎标  签 娄烨 | 周迅 | 文艺 | 爱情 | 苏州河 | 中国电影 | 大陆 | 中国

◎简  介

  上海苏州河上,用摩托车替人送货的马达(贾宏声)接下送接纯真少女牡丹(周迅)的活,两人相处时,牡丹爱上马达,但就在她决定把终身托付给对方时,马达财迷心窍联合黑道朋友绑架了她,令牡丹心灰意冷跳进苏州河里。临跳前,牡丹丢下会变成美人鱼再寻马达的话。
  
  五年后,为自己行为懊悔不迭的马达疑惑牡丹又回来了,开始四处找寻。当在某酒吧里看到扮美人鱼表演的美美(周迅)时,马达认定她就是牡丹,然而美美不过是另一个痴情女子而已。

◎获奖情况

  第1届华语电影传媒大奖 ?(2001)
  年度十佳华语电影

Video
ID : 1
Format : AVC
Format/Info : Advanced Video Codec
Format profile : [email protected]
Format settings : CABAC / 9 Ref Frames
Format settings, CABAC : Yes
Format settings, Reference frames : 9 frames
Codec ID : V_MPEG4/ISO/AVC
Duration : 1 h 22 min
Bit rate : 7 431 kb/s
Width : 1 280 pixels
Height : 720 pixels
Display aspect ratio : 16:9
Frame rate mode : Constant
Frame rate : 24.000 FPS
Color space : YUV
Chroma subsampling : 4:2:0
Bit depth : 8 bits
Scan type : Progressive
Bits/(Pixel*Frame) : 0.336
Stream size : 4.29 GiB (96%)
Writing library : x264 core 163 r3059 b684ebe
Encoding settings : cabac=1 / ref=9 / deblock=1:-3:-3 / analyse=0x3:0x133 / me=umh / subme=10 / psy=1 / psy_rd=1.00:0.15 / mixed_ref=1 / me_range=24 / chroma_me=1 / trellis=2 / 8x8dct=1 / cqm=0 / deadzone=21,11 / fast_pskip=1 / chroma_qp_offset=-3 / threads=18 / lookahead_threads=3 / sliced_threads=0 / nr=0 / decimate=1 / interlaced=0 / bluray_compat=0 / constrained_intra=0 / bframes=8 / b_pyramid=2 / b_adapt=2 / b_bias=0 / direct=3 / weightb=1 / open_gop=0 / weightp=2 / keyint=250 / keyint_min=24 / scenecut=40 / intra_refresh=0 / rc_lookahead=60 / rc=crf / mbtree=1 / crf=17.0 / qcomp=0.60 / qpmin=0 / qpmax=69 / qpstep=4 / ip_ratio=1.40 / aq=3:0.50
Language : English
Default : Yes
Forced : No
Color range : Limited
Matrix coefficients : BT.709

Audio
ID : 2
Format : FLAC
Format/Info : Free Lossless Audio Codec
Codec ID : A_FLAC
Duration : 1 h 22 min
Bit rate mode : Variable
Bit rate : 271 kb/s
Channel(s) : 2 channels
Channel layout : L R
Sampling rate : 48.0 kHz
Frame rate : 11.719 FPS (4096 SPF)
Bit depth : 16 bits
Compression mode : Lossless
Stream size : 160 MiB (4%)
Title : Mandarin
Writing library : libFLAC 1.2.1 (UTC 2007-09-17)
Language : Chinese
Default : Yes
Forced : No

Text #1
ID : 3
Format : UTF-8
Codec ID : S_TEXT/UTF8
Codec ID/Info : UTF-8 Plain Text
Duration : 1 h 19 min
Bit rate : 29 b/s
Count of elements : 637
Stream size : 17.1 KiB (0%)
Title : English
Language : English
Default : Yes
Forced : Yes

Text #2
ID : 4
Format : PGS
Muxing mode : zlib
Codec ID : S_HDMV/PGS
Codec ID/Info : Picture based subtitle format used on BDs/HD-DVDs
Duration : 1 h 19 min
Bit rate : 7 692 b/s
Count of elements : 1288
Stream size : 4.36 MiB (0%)
Title : English
Language : English
Default : No
Forced : No

Text #3
ID : 5
Format : PGS
Muxing mode : zlib
Codec ID : S_HDMV/PGS
Codec ID/Info : Picture based subtitle format used on BDs/HD-DVDs
Duration : 1 h 19 min
Bit rate : 9 038 b/s
Count of elements : 1304
Stream size : 5.16 MiB (0%)
Title : Chinese (traditional)
Language : Chinese
Default : No
Forced : No

Menu
00:00:00.000 : en:00:00:00.000
00:10:29.125 : en:00:10:29.125
00:21:01.542 : en:00:21:01.542
00:31:26.417 : en:00:31:26.417
00:41:31.417 : en:00:41:31.417
00:50:16.458 : en:00:50:16.458
01:02:13.500 : en:01:02:13.500
01:12:11.917 : en:01:12:11.917





1 个附件 售价 大小 下载 时间

Suzhou.River.2000.720p.BluRay.x264-USURY.torrent 0 金币 45.28K 2181 次 3天前

#1楼
发帖时间:2021-06-11 12:00:35   |   回复数:2
ken.sting
一派掌门
感谢楼主分享精彩资源!
3天前 #2楼
luocheng7052
武林高手
多谢楼主分享!
2天前 #3楼
游客组