q3r3
武林盟主

[2018] [欧美] [剧情] [4K-原盘] 致命勘探/异星探索 Prospect.2018.2160p.US.BluRay.REMUX.HEVC.DTS-HD.MA.5.1-FGT 51.96GB

-->

帖子完整标题:致命勘探/异星探索 Prospect.2018.2160p.US.BluRay.REMUX.HEVC.DTS-HD.MA.5.1-FGT 51.96GB



◎译  名 致命勘探/异星探索(台)
◎片  名 Prospect
◎年  代 2018
◎产  地 美国
◎类  别 剧情 / 科幻 / 惊悚
◎语  言 英语
◎上映日期 2018-03-10(西南偏南电影节) / 2018-11-02(美国)
◎豆瓣评分 4.9/10 from 1115 users
◎豆瓣链接 https://movie.douban.com/subject/30149773/
◎片  长 98分钟
◎导  演 Chris Caldwell / Zeek Earl
◎编  剧 Chris Caldwell / Zeek Earl
◎主  演 佩德罗·帕斯卡 Pedro Pascal
      杰伊·杜普拉斯 Jay Duplass
      索菲·撒切尔 Sophie Thatcher

◎标  签 科幻 | 美国 | 惊悚 | 2018 | 美国电影 | 剧情 | 电影 | 冒险

◎简  介

  一个少女和她父亲来到外星球勘察神秘矿石,但那座充满危险的森林里还有其他人,很快勘探变成了一场绝命逃亡。

Video
ID : 1
ID in the original source medium : 4113 (0x1011)
Format : HEVC
Format/Info : High Efficiency Video Coding
Format profile : Main [email protected]@High
HDR format : SMPTE ST 2086, HDR10 compatible
Codec ID : V_MPEGH/ISO/HEVC
Duration : 1 h 39 min
Bit rate : 71.9 Mb/s
Width : 3 840 pixels
Height : 2 160 pixels
Display aspect ratio : 16:9
Frame rate mode : Constant
Frame rate : 23.976 (24000/1001/189150) FPS
Color space : YUV
Chroma subsampling : 4:2:0 (Type 2)
Bit depth : 10 bits
Bits/(Pixel*Frame) : 0.361
Stream size : 50.1 GiB (96%)
Language : English
Default : No
Forced : No
Color range : Limited
Color primaries : BT.2020
Transfer characteristics : PQ
Matrix coefficients : BT.2020 non-constant
Mastering display color primaries : Display P3
Mastering display luminance : min: 0.0050 cd/m2, max: 1000 cd/m2
Maximum Content Light Level : 1000 cd/m2
Maximum Frame-Average Light Level : 516 cd/m2
Original source medium : Blu-ray

Audio #1
ID : 2
ID in the original source medium : 4352 (0x1100)
Format : DTS XLL
Format/Info : Digital Theater Systems
Commercial name : DTS-HD Master Audio
Codec ID : A_DTS
Duration : 1 h 39 min
Bit rate mode : Variable
Bit rate : 1 800 kb/s
Channel(s) : 6 channels
Channel layout : C L R Ls Rs LFE
Sampling rate : 48.0 kHz
Frame rate : 93.750 FPS (512 SPF)
Bit depth : 16 bits
Compression mode : Lossless
Stream size : 1.25 GiB (2%)
Title : DTS-HD MA 5.1
Language : English
Default : Yes
Forced : No
Original source medium : Blu-ray

Audio #2
ID : 3
Format : AC-3
Format/Info : Audio Coding 3
Commercial name : Dolby Digital
Codec ID : A_AC3
Duration : 1 h 39 min
Bit rate mode : Constant
Bit rate : 640 kb/s
Channel(s) : 6 channels
Channel layout : L R C LFE Ls Rs
Sampling rate : 48.0 kHz
Frame rate : 31.250 FPS (1536 SPF)
Compression mode : Lossy
Stream size : 457 MiB (1%)
Title : DD 5.1
Language : English
Service kind : Complete Main
Default : No
Forced : No

Audio #3
ID : 4
ID in the original source medium : 4353 (0x1101)
Format : AC-3
Format/Info : Audio Coding 3
Commercial name : Dolby Digital
Codec ID : A_AC3
Duration : 1 h 39 min
Bit rate mode : Constant
Bit rate : 224 kb/s
Channel(s) : 2 channels
Channel layout : L R
Sampling rate : 48.0 kHz
Frame rate : 31.250 FPS (1536 SPF)
Compression mode : Lossy
Stream size : 160 MiB (0%)
Title : DD 2.0
Language : English
Service kind : Complete Main
Default : No
Forced : No
Original source medium : Blu-ray

Text #1
ID : 5
Format : UTF-8
Codec ID : S_TEXT/UTF8
Codec ID/Info : UTF-8 Plain Text
Duration : 1 h 34 min
Bit rate : 38 b/s
Count of elements : 1171
Stream size : 26.7 KiB (0%)
Title : English-SRT
Language : English
Default : Yes
Forced : No

Text #2
ID : 6
ID in the original source medium : 4768 (0x12A0)
Format : PGS
Muxing mode : zlib
Codec ID : S_HDMV/PGS
Codec ID/Info : Picture based subtitle format used on BDs/HD-DVDs
Duration : 1 h 38 min
Bit rate : 26.8 kb/s
Count of elements : 1793
Stream size : 18.9 MiB (0%)
Title : English-PGS
Language : English
Default : No
Forced : No
Original source medium : Blu-ray

Menu
00:00:00.000 : Chapter 01
00:07:43.629 : Chapter 02
00:13:02.531 : Chapter 03
00:20:54.795 : Chapter 04
00:27:59.761 : Chapter 05
00:35:11.275 : Chapter 06
00:46:54.228 : Chapter 07
00:54:41.736 : Chapter 08
01:02:19.402 : Chapter 09
01:12:29.428 : Chapter 10
01:20:09.221 : Chapter 11
01:28:26.968 : Chapter 12





1 个附件 售价 大小 下载 时间

Prospect.2018.2160p.US.BluRay.REMUX.HEVC.DTS-HD.MA.5.1-FGT.torrent 0 金币 130.53K 609 次 3天前

#1楼
发帖时间:2021-06-11 12:30:23   |   回复数:0
游客组