topgood
武林高手

[2020] [其他] [惊悚] [WEB-1080P] 完美敌人 A.Perfect.Enemy.2020.1080p.WEB-DL.DD5.1.H264-FGT 3.08GB

-->

帖子完整标题:完美敌人 A.Perfect.Enemy.2020.1080p.WEB-DL.DD5.1.H264-FGT 3.08GB



◎译  名 完美敌人
◎片  名 A Perfect Enemy
◎年  代 2020
◎产  地 西班牙,加拿大,法国
◎类  别 惊悚
◎语  言 英语
◎上映日期 2020-10-16(Sitges Film Festival)
◎豆瓣评分 /10 from 0 users
◎豆瓣链接 https://movie.douban.com/subject/34883473/
◎导  演 凯克·麦罗 Kike Maíllo
◎编  剧 凯克·麦罗 Kike Maíllo / 费尔南多·纳瓦罗 Fernando Navarro / 阿梅丽·诺冬 Amélie Nothomb / Cristina Clemente
◎主  演 托马斯·科特 Tomasz Kot

◎标  签 西班牙 | 惊悚 | 2021上海电影节 | 西班牙电影 | 改编 | 24届上海国际电影节 | 剧情 | SIFF

◎简  介

  托马斯·科特([冷战])、阿西娜·斯特拉特([谎言大师])将主演惊悚片[完美敌人](A Perfect Enemy,暂译)。凯克·麦罗([伊娃])执导。影片改编自阿梅丽·诺冬的畅销书《敌人的伪装》(The Enemy’s Cosmetique),故事讲述事业有成的建筑师杰瑞米·奥古斯塔(托马斯饰)在机场遇到了非常健谈的特塞尔·泰斯特(阿西娜饰)。杰瑞米错过了自己的航班完全是因为特塞尔,特塞尔似乎极度需要被关注。尽管这次相遇看起来像是偶然的,但其本质逐渐变得罪恶起来。

Video
ID : 1
Format : AVC
Format/Info : Advanced Video Codec
Format profile : [email protected]
Format settings : CABAC / 5 Ref Frames
Format settings, CABAC : Yes
Format settings, Reference frames : 5 frames
Codec ID : V_MPEG4/ISO/AVC
Duration : 1 h 30 min
Bit rate : 4 511 kb/s
Width : 1 920 pixels
Height : 802 pixels
Display aspect ratio : 2.40:1
Frame rate mode : Constant
Frame rate : 24.000 FPS
Color space : YUV
Chroma subsampling : 4:2:0
Bit depth : 8 bits
Scan type : Progressive
Bits/(Pixel*Frame) : 0.122
Stream size : 2.84 GiB (92%)
Language : English
Default : Yes
Forced : No
Color range : Limited
Color primaries : BT.709
Transfer characteristics : BT.709
Matrix coefficients : BT.709

Audio
ID : 2
Format : AC-3
Format/Info : Audio Coding 3
Commercial name : Dolby Digital
Codec ID : A_AC3
Duration : 1 h 30 min
Bit rate mode : Constant
Bit rate : 384 kb/s
Channel(s) : 6 channels
Channel layout : L R C LFE Ls Rs
Sampling rate : 48.0 kHz
Frame rate : 31.250 FPS (1536 SPF)
Compression mode : Lossy
Stream size : 248 MiB (8%)
Language : English
Service kind : Complete Main
Default : Yes
Forced : No

Text #1
ID : 3
Format : UTF-8
Codec ID : S_TEXT/UTF8
Codec ID/Info : UTF-8 Plain Text
Duration : 1 h 15 min
Bit rate : 0 b/s
Count of elements : 5
Stream size : 89.0 Bytes (0%)
Title : FORCED
Language : English
Default : Yes
Forced : No

Text #2
ID : 4
Format : UTF-8
Codec ID : S_TEXT/UTF8
Codec ID/Info : UTF-8 Plain Text
Duration : 1 h 24 min
Bit rate : 54 b/s
Count of elements : 908
Stream size : 33.6 KiB (0%)
Language : English
Default : No
Forced : No





1 个附件 售价 大小 下载 时间

A.Perfect.Enemy.2020.1080p.WEB-DL.DD5.1.H264-FGT.torrent 0 金币 31.46K 1432 次 3天前

#1楼
发帖时间:2021-06-11 14:57:22   |   回复数:0
游客组