squallzhao
武林盟主

[2020] [其他] [剧情] [BD-720P] 夏风沉醉的晚上 The.Sail.of.Cinema.2020.720p.BluRay.x264-BiPOLAR 475.41MB

-->

帖子完整标题:夏风沉醉的晚上 The.Sail.of.Cinema.2020.720p.BluRay.x264-BiPOLAR 475.41MB



◎译  名 The Sail of Cinema
◎片  名 夏风沉醉的晚上
◎年  代 2020
◎产  地 中国大陆
◎类  别 剧情 / 短片
◎语  言 汉语普通话,杭州话
◎上映日期 2020-08-27(中国大陆)
◎豆瓣评分 5.4/10 from 451 users
◎豆瓣链接 https://movie.douban.com/subject/35193163/
◎片  长 11分钟
◎导  演 顾晓刚 Xiaogang Gu
◎编  剧 顾晓刚 Xiaogang Gu
◎主  演 彭璐琦 Luqi Peng
      汪凤娟 Fengjuan Wang
      钱有法 Youfa Qian

◎标  签 短片 | 顾晓刚 | 2020 | 中国 | 剧情 | 大陆 | 中国大陆 | 文艺

◎简  介

  在《夏风沉醉的晚上》,导演顾晓刚又一次回家,在船上支起银幕放《春江水暖》,给家乡天地和人看。那瓢富春江的水放回江中,任它流向更广阔处。
  
  FIRST携手@雷克萨斯中国 邀请顾晓刚导演拍摄的短片上线。东方日常是在富阳的生活,吃茶、钓鱼、坐船,都是紧要的。和导演一起,我们向桃花源驶去。

Video
ID : 1
Format : AVC
Format/Info : Advanced Video Codec
Format profile : [email protected]
Format settings : CABAC / 9 Ref Frames
Format settings, CABAC : Yes
Format settings, Reference frames : 9 frames
Codec ID : V_MPEG4/ISO/AVC
Duration : 11 min 30 s
Bit rate : 5 241 kb/s
Width : 1 280 pixels
Height : 720 pixels
Display aspect ratio : 16:9
Frame rate mode : Constant
Frame rate : 24.000 FPS
Color space : YUV
Chroma subsampling : 4:2:0
Bit depth : 8 bits
Scan type : Progressive
Bits/(Pixel*Frame) : 0.237
Stream size : 431 MiB (91%)
Writing library : x264 core 163 r3059 b684ebe
Encoding settings : cabac=1 / ref=9 / deblock=1:-3:-3 / analyse=0x3:0x133 / me=umh / subme=10 / psy=1 / psy_rd=1.00:0.15 / mixed_ref=1 / me_range=24 / chroma_me=1 / trellis=2 / 8x8dct=1 / cqm=0 / deadzone=21,11 / fast_pskip=1 / chroma_qp_offset=-3 / threads=18 / lookahead_threads=3 / sliced_threads=0 / nr=0 / decimate=1 / interlaced=0 / bluray_compat=0 / constrained_intra=0 / bframes=8 / b_pyramid=2 / b_adapt=2 / b_bias=0 / direct=3 / weightb=1 / open_gop=0 / weightp=2 / keyint=250 / keyint_min=24 / scenecut=40 / intra_refresh=0 / rc_lookahead=60 / rc=crf / mbtree=1 / crf=17.0 / qcomp=0.60 / qpmin=0 / qpmax=69 / qpstep=4 / ip_ratio=1.40 / aq=3:0.70
Language : English
Default : Yes
Forced : No
Color range : Limited
Matrix coefficients : BT.709

Audio
ID : 2
Format : FLAC
Format/Info : Free Lossless Audio Codec
Codec ID : A_FLAC
Duration : 11 min 30 s
Bit rate mode : Variable
Bit rate : 522 kb/s
Channel(s) : 2 channels
Channel layout : L R
Sampling rate : 48.0 kHz
Frame rate : 11.719 FPS (4096 SPF)
Bit depth : 16 bits
Compression mode : Lossless
Stream size : 43.0 MiB (9%)
Title : Mandarin
Writing library : libFLAC 1.2.1 (UTC 2007-09-17)
Language : Chinese
Default : Yes
Forced : No

Text #1
ID : 3
Format : UTF-8
Codec ID : S_TEXT/UTF8
Codec ID/Info : UTF-8 Plain Text
Duration : 4 min 43 s
Bit rate : 60 b/s
Count of elements : 89
Stream size : 2.11 KiB (0%)
Title : English
Language : English
Default : Yes
Forced : Yes

Text #2
ID : 4
Format : PGS
Muxing mode : zlib
Codec ID : S_HDMV/PGS
Codec ID/Info : Picture based subtitle format used on BDs/HD-DVDs
Duration : 4 min 43 s
Bit rate : 17.3 kb/s
Count of elements : 141
Stream size : 597 KiB (0%)
Title : English
Language : English
Default : No
Forced : No

Text #3
ID : 5
Format : PGS
Muxing mode : zlib
Codec ID : S_HDMV/PGS
Codec ID/Info : Picture based subtitle format used on BDs/HD-DVDs
Duration : 4 min 43 s
Bit rate : 18.1 kb/s
Count of elements : 140
Stream size : 626 KiB (0%)
Title : Chinese (simplified)
Language : Chinese
Default : No
Forced : No





1 个附件 售价 大小 下载 时间

The.Sail.of.Cinema.2020.720p.BluRay.x264-BiPOLAR.torrent 0 金币 10.03K 518 次 3天前

#1楼
发帖时间:2021-06-11 18:43:30   |   回复数:1
liyouchai
隐世仙人♂
谢谢楼主分享资源
2天前 #2楼
游客组