squallzhao
武林盟主

[更 早] [欧美] [剧情] [WEB-1080P] 在一起 Together.2021.1080p.WEBRip.DD5.1.x264-NOGRP 4.53GB

-->

帖子完整标题:在一起 Together.2021.1080p.WEBRip.DD5.1.x264-NOGRP 4.53GB



◎译  名 在一起
◎片  名 Together
◎年  代 2021
◎产  地 英国
◎类  别 剧情
◎语  言 英语
◎上映日期 2021-06-17(英国) / 2021-08-27(美国)
◎豆瓣评分 /10 from 0 users
◎豆瓣链接 https://movie.douban.com/subject/35462126/
◎片  长 91分钟
◎导  演 史蒂芬·戴德利 Stephen Daldry / Justin Martin
◎编  剧 丹尼斯·凯利 Dennis Kelly
◎主  演 詹姆斯·麦卡沃伊 James McAvoy
      莎朗·豪根 Sharon Horgan

◎标  签 2021 | 英国 | JamesMcAvoy | 疫情 | 家庭 | BBC | 喜剧 | 剧情

◎简  介

  讲述一对因疫情封城而隔离在家的夫妻,开始重新审视自己以及两人的关系。

Video
ID : 1
Format : AVC
Format/Info : Advanced Video Codec
Format profile : [email protected]
Format settings : CABAC / 4 Ref Frames
Format settings, CABAC : Yes
Format settings, Reference frames : 4 frames
Codec ID : V_MPEG4/ISO/AVC
Duration : 1 h 32 min
Bit rate : 6 641 kb/s
Width : 1 918 pixels
Height : 960 pixels
Display aspect ratio : 1.998
Frame rate mode : Constant
Frame rate : 23.976 (24000/1001/189150) FPS
Color space : YUV
Chroma subsampling : 4:2:0
Bit depth : 8 bits
Scan type : Progressive
Bits/(Pixel*Frame) : 0.150
Stream size : 4.28 GiB (95%)
Default : Yes
Forced : No
Color range : Limited
Color primaries : BT.709
Transfer characteristics : BT.709
Matrix coefficients : BT.709

Audio
ID : 2
Format : AC-3
Format/Info : Audio Coding 3
Commercial name : Dolby Digital
Codec ID : A_AC3
Duration : 1 h 32 min
Bit rate mode : Constant
Bit rate : 384 kb/s
Channel(s) : 6 channels
Channel layout : L R C LFE Ls Rs
Sampling rate : 48.0 kHz
Frame rate : 31.250 FPS (1536 SPF)
Compression mode : Lossy
Stream size : 253 MiB (5%)
Title : British English
Language : English
Service kind : Complete Main
Default : No
Forced : No

Text #1
ID : 3
Format : UTF-8
Codec ID : S_TEXT/UTF8
Codec ID/Info : UTF-8 Plain Text
Duration : 1 h 29 min
Bit rate : 103 b/s
Count of elements : 1981
Stream size : 67.7 KiB (0%)
Language : English
Default : Yes
Forced : No

Text #2
ID : 4
Format : UTF-8
Codec ID : S_TEXT/UTF8
Codec ID/Info : UTF-8 Plain Text
Duration : 1 h 29 min
Bit rate : 79 b/s
Count of elements : 1570
Stream size : 51.7 KiB (0%)
Title : Spanish
Language : Spanish
Default : No
Forced : No





1 个附件 售价 大小 下载 时间

Together.2021.1080p.WEBRip.DD5.1.x264-NOGRP.torrent 0 金币 23.24K 315 次 7天前

#1楼
发帖时间:2021-09-15 16:04:06   |   回复数:0
游客组