topgood
一派掌门

[更 早] [其他] [剧情] [BD-1080P] 阿玛柯德 Amarcord.1973.REMASTERED.1080p.BluRay.x264-USURY 16.24GB

-->

帖子完整标题:阿玛柯德 Amarcord.1973.REMASTERED.1080p.BluRay.x264-USURY 16.24GB



◎译  名 阿玛柯德/I Remember/当年事/想当年(港)/我的回忆/我记得/我记得,想当年/童年事,我记得/阿玛珂德(台)
◎片  名 Amarcord
◎年  代 1973
◎产  地 意大利,法国
◎类  别 剧情 / 喜剧
◎语  言 意大利语,古希腊语
◎上映日期 1973-12-18(意大利)
◎豆瓣评分 8.8/10 from 12852 users
◎豆瓣链接 https://movie.douban.com/subject/1298672/
◎片  长 123分钟
◎导  演 费德里科·费里尼 Federico Fellini
◎编  剧 费德里科·费里尼 Federico Fellini / 托尼诺·格拉 Tonino Guerra
◎主  演 普佩拉·玛奇奥 Pupella Maggio
      阿尔曼多·布兰恰 Armando Brancia
      玛加莉·诺埃尔 Magali No?l
      奇乔·因格拉西亚 Ciccio Ingrassia
      南多·奥尔费伊 Nando Orfei
      布鲁诺·扎宁 Bruno Zanin
      吉安菲利波·卡尔卡诺 Gianfilippo Carcano
      约瑟琳·坦齐利 Josiane Tanzilli
      玛利亚·安东涅塔·贝卢齐 Maria Antonietta Beluzzi
      Antonino Faa Di Bruno Antonino Faa Di Bruno
      Aristide Caporale Aristide Caporale
      阿尔瓦罗·维塔利 Alvaro Vitali
      多纳泰拉·甘比尼 Donatella Gambini
      Dina Adorni Dina Adorni
      保罗·巴罗尼 Paolo Baroni
      布鲁诺·贝托奇 Bruno Bertocci
      Marcello Bonini Olas Marcello Bonini Olas
      Dante Cleri Dante Cleri
      Mario Del Vago Mario Del Vago
      弗朗西斯科·马塞利 Francesco Maselli
      Eros Ramazzotti Eros Ramazzotti
      菲德斯·斯塔尼 Fides Stagni

◎标  签 意大利 | 1973 | 喜剧 | 奥斯卡最佳外语片 | 剧情 | 欧洲 | 法国 | 经典

◎简  介

  ◎1975奧斯卡最佳外語片
  
  ◎1974紐約影評人協會最佳導演及最佳影片
  
  三月,空氣中紛飛飄揚著輕軟絮草,教堂的鐘響迴盪在石板路上,小鎮的春天就此揭開序幕。時序回到三零年代亞德里亞海邊的小城,墨索里尼的極右理想仍是信奉的教條,建築工人老爸、家庭主婦老媽、遊手好閒的舅舅、頑皮的小弟,男孩在天主教、法西斯和義大利傳統家庭價值中,迎接他的青春與成長。教室裡捉弄老師的惡作劇、教堂裡擔心手淫的懺悔、鄉村海邊的熱鬧婚宴,費里尼從容隨意地摘選擷取小鎮生活的切片與軼事,密密織就一片記憶之網,在時代洪流與個人思憶之間相互輝映。
  
  費里尼曾說:「一個人所能做的紀錄,永遠是,也只能是對他自己的紀錄」。《阿瑪珂德》不但被推崇為其個人寫實語法的代表作,也被視為他最重要的自傳作品之一。影片一方面帶領觀眾走進費里尼的童年生活,看見他純真誠摯、幽默風趣的情感源頭。在時代景況的描繪上,也跳脫了純粹客觀、歷史觀察式的審視與檢驗,從最根本的生活細節著手,真實地重現了二次大戰前後義大利境內法西斯的樣貌。
  
  有趣的是,在《阿瑪珂德》中,我們也可清楚地看到費里尼對女性形象的思索與著迷,聖母、烈女、蕩婦的三位一體,母親與妓女形成了互為表裡的對比,而費里尼作品中一再出現的、體態豐腴、巨大的女體,不但是哺育孩童的母性泉源,也是青年性啟蒙的開端。

◎获奖情况

  第48届奥斯卡金像奖 ?(1976)
  最佳导演(提名) 费德里科·费里尼
  最佳原创剧本(提名) 费德里科·费里尼?/?托尼诺·格拉
  
  第47届奥斯卡金像奖 ?(1975)
  最佳外语片

Video
ID : 1
Format : AVC
Format/Info : Advanced Video Codec
Format profile : [email protected]
Format settings : CABAC / 4 Ref Frames
Format settings, CABAC : Yes
Format settings, Reference frames : 4 frames
Codec ID : V_MPEG4/ISO/AVC
Duration : 2 h 5 min
Bit rate : 17.6 Mb/s
Width : 1 920 pixels
Height : 1 038 pixels
Display aspect ratio : 1.85:1
Frame rate mode : Constant
Frame rate : 23.976 (24000/1001/189150) FPS
Color space : YUV
Chroma subsampling : 4:2:0
Bit depth : 8 bits
Scan type : Progressive
Bits/(Pixel*Frame) : 0.368
Stream size : 15.5 GiB (95%)
Writing library : x264 core 164 r3075 66a5bc1
Encoding settings : cabac=1 / ref=4 / deblock=1:-3:-3 / analyse=0x3:0x133 / me=umh / subme=10 / psy=1 / psy_rd=1.00:0.15 / mixed_ref=1 / me_range=24 / chroma_me=1 / trellis=2 / 8x8dct=1 / cqm=0 / deadzone=21,11 / fast_pskip=1 / chroma_qp_offset=-3 / threads=18 / lookahead_threads=3 / sliced_threads=0 / nr=0 / decimate=1 / interlaced=0 / bluray_compat=0 / constrained_intra=0 / bframes=8 / b_pyramid=2 / b_adapt=2 / b_bias=0 / direct=3 / weightb=1 / open_gop=0 / weightp=2 / keyint=250 / keyint_min=23 / scenecut=40 / intra_refresh=0 / rc_lookahead=60 / rc=crf / mbtree=1 / crf=21.0 / qcomp=0.60 / qpmin=0 / qpmax=69 / qpstep=4 / ip_ratio=1.40 / aq=3:0.50
Language : English
Default : Yes
Forced : No

Audio #1
ID : 2
Format : FLAC
Format/Info : Free Lossless Audio Codec
Codec ID : A_FLAC
Duration : 2 h 5 min
Bit rate mode : Variable
Bit rate : 609 kb/s
Channel(s) : 1 channel
Channel layout : C
Sampling rate : 48.0 kHz
Frame rate : 11.719 FPS (4096 SPF)
Bit depth : 24 bits
Compression mode : Lossless
Stream size : 548 MiB (3%)
Writing library : libFLAC 1.2.1 (UTC 2007-09-17)
Language : Italian
Default : Yes
Forced : No

Audio #2
ID : 3
Format : AC-3
Format/Info : Audio Coding 3
Commercial name : Dolby Digital
Codec ID : A_AC3
Duration : 2 h 5 min
Bit rate mode : Constant
Bit rate : 192 kb/s
Channel(s) : 1 channel
Channel layout : C
Sampling rate : 48.0 kHz
Frame rate : 31.250 FPS (1536 SPF)
Compression mode : Lossy
Stream size : 173 MiB (1%)
Language : English
Service kind : Complete Main
Default : No
Forced : No

Audio #3
ID : 4
Format : AAC LC
Format/Info : Advanced Audio Codec Low Complexity
Codec ID : A_AAC-2
Duration : 2 h 5 min
Bit rate : 62.2 kb/s
Channel(s) : 1 channel
Channel layout : C
Sampling rate : 48.0 kHz
Frame rate : 46.875 FPS (1024 SPF)
Compression mode : Lossy
Delay relative to video : 9 ms
Stream size : 56.0 MiB (0%)
Title : English Commentary by Frank Burke
Language : English
Default : No
Forced : No

Text #1
ID : 5
Format : UTF-8
Codec ID : S_TEXT/UTF8
Codec ID/Info : UTF-8 Plain Text
Duration : 2 h 1 min
Bit rate : 46 b/s
Count of elements : 1265
Stream size : 41.2 KiB (0%)
Title : English
Language : English
Default : Yes
Forced : Yes

Text #2
ID : 6
Format : PGS
Muxing mode : zlib
Codec ID : S_HDMV/PGS
Codec ID/Info : Picture based subtitle format used on BDs/HD-DVDs
Duration : 2 h 1 min
Bit rate : 6 733 b/s
Count of elements : 2530
Stream size : 5.84 MiB (0%)
Title : English
Language : English
Default : No
Forced : No

Menu
00:00:00.000 : en:00:00:00.000
00:04:21.928 : en:00:04:21.928
00:06:42.902 : en:00:06:42.902
00:11:55.131 : en:00:11:55.131
00:13:47.201 : en:00:13:47.201
00:15:25.967 : en:00:15:25.967
00:23:21.442 : en:00:23:21.442
00:25:33.782 : en:00:25:33.782
00:32:46.631 : en:00:32:46.631
00:37:06.975 : en:00:37:06.975
00:42:55.364 : en:00:42:55.364
00:48:44.004 : en:00:48:44.004
00:52:21.096 : en:00:52:21.096
00:58:03.939 : en:00:58:03.939
01:06:41.831 : en:01:06:41.831
01:09:50.645 : en:01:09:50.645
01:16:50.564 : en:01:16:50.564
01:24:56.091 : en:01:24:56.091
01:31:59.305 : en:01:31:59.305
01:40:08.377 : en:01:40:08.377
01:46:05.192 : en:01:46:05.192
01:50:52.187 : en:01:50:52.187
01:52:39.711 : en:01:52:39.711
01:55:28.839 : en:01:55:28.839
02:00:16.126 : en:02:00:16.126





1 个附件 售价 大小 下载 时间

Amarcord.1973.REMASTERED.1080p.BluRay.x264-USURY.torrent 0 金币 21.13K 1050 次 1天前

#1楼
发帖时间:2021-10-14 09:38:24   |   回复数:0
游客组