squallzhao
武林盟主

[更 早] [欧美] [其他] [BD-1080P] 悍将奇兵 Breakdown.1997.1080p.BluRay.x264-MiMiC 16.48GB

-->

帖子完整标题:悍将奇兵 Breakdown.1997.1080p.BluRay.x264-MiMiC 16.48GB



◎译  名 悍将奇兵
◎片  名 Breakdown
◎年  代 1997
◎产  地 美国
◎类  别 悬疑 / 惊悚 / 犯罪
◎语  言 英语
◎上映日期 1997-08-28
◎豆瓣评分 7.5/10 from 2901 users
◎豆瓣链接 https://movie.douban.com/subject/1304828/
◎片  长 93 分钟
◎导  演 乔纳森·莫斯托 Jonathan Mostow
◎编  剧 乔纳森·莫斯托 Jonathan Mostow
◎主  演 库尔特·拉塞尔 Kurt Russell
      迈克·康纳·盖尼 M.C. Gainey
      凯瑟琳·奎南 Kathleen Quinlan
      Gene Hartline Gene Hartline
      Vincent Berry Vincent Berry
      杰克·诺斯沃迪 Jack Noseworthy
      J·T·沃尔什 J.T. Walsh
      里奇·布林克利 Ritch Brinkley
      Alitzah Alitzah
      瑞克斯·林恩 Rex Linn
      托马斯·科帕切 Thomas Kopache
      Ancel Cook Ancel Cook
      茉拉哈瑞斯 Moira Harris

◎标  签 美国 | 犯罪 | 公路 | 惊悚 | 悬疑 | 动作 | 1997 | 美国电影

◎简  介

  杰夫(库尔特·拉塞尔 Kurt Russell 饰)和艾米(凯瑟琳·奎南 Kathleen Quinlan 饰)是一对夫妻,在一次长途旅行之中,两人驾驶的车辆在荒郊野岭里抛锚了。正当两人急得焦头烂额之际,一个名叫瑞德(J·T·沃尔什 J.T. Walsh 饰)的陌生男人出现在了他们面前。瑞德好心的告诉杰夫和艾米,在不远处有地方能够叫到拖车,杰夫边让艾米跟随瑞德前往,很快,这个错误的决定就让杰夫付出了代价。
  
  在等待拖车的过程中,杰夫自己修好了车,于是,他决定驱车前往瑞德所说的那个地方寻找瑞德和艾米。没想到,当杰夫到达后,当地没有一个人声称见过艾米。杰夫找到瑞德向其质问,瑞德竟然说自己不认识杰夫,更别提什么艾米了。敏感的杰夫察觉事情有诈,他想向警方求助可手上没有任何证据,一时间,杰夫陷入了绝望的境地。

Video
ID : 1
Format : AVC
Format/Info : Advanced Video Codec
Format profile : [email protected]
Format settings : CABAC / 5 Ref Frames
Format settings, CABAC : Yes
Format settings, Reference frames : 5 frames
Codec ID : V_MPEG4/ISO/AVC
Duration : 1 h 33 min
Bit rate : 21.5 Mb/s
Width : 1 920 pixels
Height : 816 pixels
Display aspect ratio : 2.35:1
Frame rate mode : Constant
Frame rate : 23.976 (24000/1001/189150) FPS
Color space : YUV
Chroma subsampling : 4:2:0
Bit depth : 8 bits
Scan type : Progressive
Bits/(Pixel*Frame) : 0.572
Stream size : 14.0 GiB (85%)
Writing library : x264 core 164 r3065 ae03d92
Encoding settings : cabac=1 / ref=5 / deblock=1:0:0 / analyse=0x3:0x133 / me=umh / subme=9 / psy=1 / psy_rd=1.00:0.00 / mixed_ref=1 / me_range=16 / chroma_me=1 / trellis=2 / 8x8dct=1 / cqm=0 / deadzone=21,11 / fast_pskip=0 / chroma_qp_offset=-2 / threads=25 / lookahead_threads=2 / sliced_threads=0 / nr=0 / decimate=0 / interlaced=0 / bluray_compat=0 / constrained_intra=0 / bframes=3 / b_pyramid=2 / b_adapt=2 / b_bias=0 / direct=3 / weightb=1 / open_gop=0 / weightp=2 / keyint=240 / keyint_min=23 / scenecut=40 / intra_refresh=0 / rc=crf / mbtree=0 / crf=17.6 / qcomp=0.60 / qpmin=0 / qpmax=69 / qpstep=4 / ip_ratio=1.40 / pb_ratio=1.30 / aq=1:1.00
Default : Yes
Forced : No
Color range : Limited
Matrix coefficients : BT.709

Audio #1
ID : 2
Format : MLP FBA
Format/Info : Meridian Lossless Packing FBA
Commercial name : Dolby TrueHD
Codec ID : A_TRUEHD
Duration : 1 h 33 min
Bit rate mode : Variable
Bit rate : 3 532 kb/s
Maximum bit rate : 5 001 kb/s
Channel(s) : 6 channels
Channel layout : L R C LFE Ls Rs
Sampling rate : 48.0 kHz
Frame rate : 1 200.000 FPS (40 SPF)
Compression mode : Lossless
Stream size : 2.30 GiB (14%)
Language : English
Default : Yes
Forced : No

Audio #2
ID : 3
Format : AAC LC
Format/Info : Advanced Audio Codec Low Complexity
Codec ID : A_AAC-2
Duration : 1 h 33 min
Bit rate : 90.2 kb/s
Channel(s) : 2 channels
Channel layout : L R
Sampling rate : 48.0 kHz
Frame rate : 46.875 FPS (1024 SPF)
Compression mode : Lossy
Delay relative to video : 20 ms
Stream size : 60.0 MiB (0%)
Title : Kurt Russel and Director\'s Commentary
Language : English
Default : Yes
Forced : No

Audio #3
ID : 4
Format : AAC LC
Format/Info : Advanced Audio Codec Low Complexity
Codec ID : A_AAC-2
Duration : 1 h 33 min
Bit rate : 116 kb/s
Channel(s) : 2 channels
Channel layout : L R
Sampling rate : 48.0 kHz
Frame rate : 46.875 FPS (1024 SPF)
Compression mode : Lossy
Delay relative to video : 20 ms
Stream size : 77.1 MiB (0%)
Title : Isolated Score
Language : English
Default : Yes
Forced : No

Text #1
ID : 5
Format : PGS
Muxing mode : zlib
Codec ID : S_HDMV/PGS
Codec ID/Info : Picture based subtitle format used on BDs/HD-DVDs
Duration : 1 h 24 min
Bit rate : 23.9 kb/s
Count of elements : 1448
Stream size : 14.4 MiB (0%)
Title : English
Language : English
Default : No
Forced : No

Text #2
ID : 6
Format : PGS
Muxing mode : zlib
Codec ID : S_HDMV/PGS
Codec ID/Info : Picture based subtitle format used on BDs/HD-DVDs
Duration : 1 h 28 min
Bit rate : 26.6 kb/s
Count of elements : 1730
Stream size : 16.9 MiB (0%)
Title : English - SDH
Language : English
Default : No
Forced : No

Text #3
ID : 7
Format : PGS
Muxing mode : zlib
Codec ID : S_HDMV/PGS
Codec ID/Info : Picture based subtitle format used on BDs/HD-DVDs
Duration : 1 h 32 min
Bit rate : 60.7 kb/s
Count of elements : 3526
Stream size : 40.3 MiB (0%)
Title : Kurt Russel and Director\'s Commentary
Language : English
Default : No
Forced : No

Text #4
ID : 8
Format : PGS
Muxing mode : zlib
Codec ID : S_HDMV/PGS
Codec ID/Info : Picture based subtitle format used on BDs/HD-DVDs
Duration : 1 h 29 min
Bit rate : 18.2 kb/s
Count of elements : 1650
Stream size : 11.7 MiB (0%)
Title : French
Language : French
Default : No
Forced : No

Text #5
ID : 9
Format : PGS
Muxing mode : zlib
Codec ID : S_HDMV/PGS
Codec ID/Info : Picture based subtitle format used on BDs/HD-DVDs
Duration : 1 h 33 min
Bit rate : 50.7 kb/s
Count of elements : 3520
Stream size : 33.7 MiB (0%)
Title : French Director\'s Commentary
Language : French
Default : No
Forced : No

Text #6
ID : 10
Format : PGS
Muxing mode : zlib
Codec ID : S_HDMV/PGS
Codec ID/Info : Picture based subtitle format used on BDs/HD-DVDs
Duration : 1 h 27 min
Bit rate : 186 b/s
Count of elements : 20
Stream size : 119 KiB (0%)
Title : French - Descriptions
Language : French
Default : No
Forced : No

Menu
00:00:00.000 : Chapter 01
00:02:45.749 : Chapter 02
00:03:47.352 : Chapter 03
00:07:35.497 : Chapter 04
00:10:30.630 : Chapter 05
00:13:55.668 : Chapter 06
00:15:05.446 : Chapter 07
00:18:05.668 : Chapter 08
00:20:50.583 : Chapter 09
00:27:16.260 : Chapter 10
00:28:42.346 : Chapter 11
00:31:24.341 : Chapter 12
00:33:19.623 : Chapter 13
00:35:58.490 : Chapter 14
00:39:38.376 : Chapter 15
00:44:24.579 : Chapter 16
00:51:12.027 : Chapter 17
00:57:09.468 : Chapter 18
01:00:08.355 : Chapter 19
01:02:08.725 : Chapter 20
01:05:23.795 : Chapter 21
01:08:53.671 : Chapter 22
01:12:46.612 : Chapter 23
01:13:57.016 : Chapter 24
01:17:09.500 : Chapter 25
01:19:31.850 : Chapter 26
01:21:22.920 : Chapter 27
01:23:09.776 : Chapter 28
01:24:56.383 : Chapter 29
01:27:39.671 : Chapter 30
01:29:26.403 : Chapter 31





1 个附件 售价 大小 下载 时间

Breakdown.1997.1080p.BluRay.x264-MiMiC.torrent 0 金币 21.38K 1442 次 1天前

#1楼
发帖时间:2021-10-14 10:31:06   |   回复数:0
游客组