q3r3
一代宗师

[2021] [欧美] [喜剧] [纯净版] [BT下载][最后的佣兵][WEB-MKV/11.79GB][简繁字幕][1080P][动作,尚格·云顿,美国,喜剧]

-->

字幕为软字幕,电脑端推荐使用播放器:PotPlayer,完美解码,KMPLAYER,其他播放器请自行尝试。

字幕为软字幕,移动端推荐使用播放器:MxPlayer,nPlayer,infuse ,其他播放器请自行尝试。



◎译  名 最后的佣兵 / 末代佣兵(台)
◎片  名 The Last Mercenary
◎年  代 2021
◎产  地 美国
◎类  别 喜剧 / 动作
◎语  言 法语
◎上映日期 2021-07-30(美国)
◎IMDb链接 https://www.imdb.com/title/tt12808182/
◎豆瓣链接 https://movie.douban.com/subject/35162506/
◎导  演 David Charhon David Charhon (id:1309327)
◎编  剧 David Charhon David Charhon (id:1309327)
◎演  员 尚格·云顿 Jean-Claude Van Damme (id:1027149)
      埃里克·朱多尔 Eric Judor (id:1023375)
      缪缪 Miou-Miou (id:1123741)
      帕特里克·坦西 Patrick Timsit (id:1012645)
      范蕾丽尔·卡帕里斯基 Valérie Kaprisky (id:1022904)
      纳西姆·斯艾哈迈德 Nassim Si Ahmed (id:1423016)
      阿尔班·伊万诺夫 Alban Ivanov (id:1389622)
      阿萨·西拉 Assa Sylla (id:1410691)
      Michel Crémadès Michel Crémadès (id:1077372)
      菲利普·莫里尔-热努 Philippe Morier-Genoud (id:1129730)
      法萨·布亚梅 Fatsah Bouyahmed (id:1382774)
      约夫·摩尔 Yov Moor (id:1404549)

◎标  签 动作 / Netflix / 尚格·云顿 / 美国 / 喜剧 / 2021 / 犯罪 / 网飞亚马逊迪士尼等

◎简  介
  雇佣兵理查德·布鲁梅雷,又名“拉·米斯特”(代号“迷雾”),曾是一名神秘的法国特勤局特工。由于 25 年前他为儿子阿奇博尔德争取的豁免权被取消,他不得不重操旧业。一场犯罪活动威胁到阿奇博尔德的生命,为了拯救自己的儿子,理查德没有更好的选择,只好求助于他的旧相识,并与一群鲁莽的年轻人和一名另类的官僚合作。但对理查德来说,最重要的是鼓起勇气让阿奇博尔德知道自己是他的父亲。

##### MediaInfo ######
General
Unique ID : 1729748158617504697341680868333579379 (0x14D232B2BDFB2FF8A4786EEC2D5EC73)
Complete name : [email protected].COM.mkv
Format : Matroska
Format version : Version 4
File size : 11.8 GiB
Duration : 1 h 52 min
Overall bit rate mode : Variable
Overall bit rate : 15.0 Mb/s
Encoded date : UTC 2021-08-02 06:49:11
Writing application : mkvmerge v44.0.0 ('Domino') 64-bit
Writing library : libebml v1.3.10 + libmatroska v1.5.2

Video
ID : 1
Format : AVC
Format/Info : Advanced Video Codec
Format profile : [email protected]
Format settings : CABAC / 3 Ref Frames
Format settings, CABAC : Yes
Format settings, Reference frames : 3 frames
Codec ID : V_MPEG4/ISO/AVC
Duration : 1 h 52 min
Bit rate mode : Variable
Bit rate : 4 117 kb/s
Nominal bit rate : 3 752 kb/s
Maximum bit rate : 8 040 kb/s
Width : 1 920 pixels
Height : 1 080 pixels
Display aspect ratio : 16:9
Frame rate mode : Constant
Frame rate : 24.000 FPS
Color space : YUV
Chroma subsampling : 4:2:0
Bit depth : 8 bits
Scan type : Progressive
Bits/(Pixel*Frame) : 0.083
Stream size : 3.23 GiB (27%)
Writing library : x264 core 148 r2722 1b0121b
Encoding settings : cabac=1 / ref=3 / deblock=1:0:0 / analyse=0x1:0x111 / me=umh / subme=10 / psy=1 / psy_rd=1.00:0.00 / mixed_ref=1 / me_range=24 / chroma_me=1 / trellis=2 / 8x8dct=0 / cqm=0 / deadzone=21,11 / fast_pskip=1 / chroma_qp_offset=-2 / threads=6 / lookahead_threads=1 / sliced_threads=0 / nr=0 / decimate=1 / interlaced=0 / bluray_compat=0 / stitchable=1 / constrained_intra=0 / bframes=2 / b_pyramid=0 / b_adapt=2 / b_bias=0 / direct=3 / weightb=1 / open_gop=0 / weightp=2 / keyint=250 / keyint_min=24 / scenecut=0 / intra_refresh=0 / rc_lookahead=48 / rc=2pass / mbtree=1 / bitrate=3752 / ratetol=1.0 / qcomp=0.50 / qpmin=6 / qpmax=51 / qpstep=4 / cplxblur=20.0 / qblur=0.5 / vbv_maxrate=8040 / vbv_bufsize=10720 / nal_hrd=vbr / filler=0 / ip_ratio=1.40 / aq=1:1.00
Default : Yes
Forced : No

Audio #1
ID : 2
Format : E-AC-3
Format/Info : Enhanced AC-3
Commercial name : Dolby Digital Plus
Codec ID : A_EAC3
Duration : 1 h 52 min
Bit rate mode : Constant
Bit rate : 640 kb/s
Channel(s) : 6 channels
Channel layout : L R C LFE Ls Rs
Sampling rate : 48.0 kHz
Frame rate : 31.250 FPS (1536 SPF)
Compression mode : Lossy
Stream size : 515 MiB (4%)
Title : French
Language : French
Service kind : Complete Main
Default : Yes
Forced : No

Audio #2
ID : 3
Format : E-AC-3
Format/Info : Enhanced AC-3
Commercial name : Dolby Digital Plus
Codec ID : A_EAC3
Duration : 1 h 52 min
Bit rate mode : Constant
Bit rate : 640 kb/s
Channel(s) : 6 channels
Channel layout : L R C LFE Ls Rs
Sampling rate : 48.0 kHz
Frame rate : 31.250 FPS (1536 SPF)
Compression mode : Lossy
Stream size : 515 MiB (4%)
Title : English
Language : English
Service kind : Complete Main
Default : No
Forced : No

Audio #3
ID : 4
Format : E-AC-3
Format/Info : Enhanced AC-3
Commercial name : Dolby Digital Plus
Codec ID : A_EAC3
Duration : 1 h 52 min
Bit rate mode : Constant
Bit rate : 640 kb/s
Channel(s) : 6 channels
Channel layout : L R C LFE Ls Rs
Sampling rate : 48.0 kHz
Frame rate : 31.250 FPS (1536 SPF)
Compression mode : Lossy
Stream size : 515 MiB (4%)
Title : Czech
Language : Czech
Service kind : Complete Main
Default : No
Forced : No

Audio #4
ID : 5
Format : E-AC-3
Format/Info : Enhanced AC-3
Commercial name : Dolby Digital Plus
Codec ID : A_EAC3
Duration : 1 h 52 min
Bit rate mode : Constant
Bit rate : 640 kb/s
Channel(s) : 6 channels
Channel layout : L R C LFE Ls Rs
Sampling rate : 48.0 kHz
Frame rate : 31.250 FPS (1536 SPF)
Compression mode : Lossy
Stream size : 515 MiB (4%)
Title : German
Language : German
Service kind : Complete Main
Default : No
Forced : No

Audio #5
ID : 6
Format : E-AC-3
Format/Info : Enhanced AC-3
Commercial name : Dolby Digital Plus
Codec ID : A_EAC3
Duration : 1 h 52 min
Bit rate mode : Constant
Bit rate : 640 kb/s
Channel(s) : 6 channels
Channel layout : L R C LFE Ls Rs
Sampling rate : 48.0 kHz
Frame rate : 31.250 FPS (1536 SPF)
Compression mode : Lossy
Stream size : 515 MiB (4%)
Title : Hindi
Language : Hindi
Service kind : Complete Main
Default : No
Forced : No

Audio #6
ID : 7
Format : E-AC-3
Format/Info : Enhanced AC-3
Commercial name : Dolby Digital Plus
Codec ID : A_EAC3
Duration : 1 h 52 min
Bit rate mode : Constant
Bit rate : 640 kb/s
Channel(s) : 6 channels
Channel layout : L R C LFE Ls Rs
Sampling rate : 48.0 kHz
Frame rate : 31.250 FPS (1536 SPF)
Compression mode : Lossy
Stream size : 515 MiB (4%)
Title : Hungarian
Language : Hungarian
Service kind : Complete Main
Default : No
Forced : No

Audio #7
ID : 8
Format : E-AC-3
Format/Info : Enhanced AC-3
Commercial name : Dolby Digital Plus
Codec ID : A_EAC3
Duration : 1 h 52 min
Bit rate mode : Constant
Bit rate : 640 kb/s
Channel(s) : 6 channels
Channel layout : L R C LFE Ls Rs
Sampling rate : 48.0 kHz
Frame rate : 31.250 FPS (1536 SPF)
Compression mode : Lossy
Stream size : 515 MiB (4%)
Title : Italian
Language : Italian
Service kind : Complete Main
Default : No
Forced : No

Audio #8
ID : 9
Format : E-AC-3
Format/Info : Enhanced AC-3
Commercial name : Dolby Digital Plus
Codec ID : A_EAC3
Duration : 1 h 52 min
Bit rate mode : Constant
Bit rate : 640 kb/s
Channel(s) : 6 channels
Channel layout : L R C LFE Ls Rs
Sampling rate : 48.0 kHz
Frame rate : 31.250 FPS (1536 SPF)
Compression mode : Lossy
Stream size : 515 MiB (4%)
Title : Japanese
Language : Japanese
Service kind : Complete Main
Default : No
Forced : No

Audio #9
ID : 10
Format : E-AC-3
Format/Info : Enhanced AC-3
Commercial name : Dolby Digital Plus
Codec ID : A_EAC3
Duration : 1 h 52 min
Bit rate mode : Constant
Bit rate : 640 kb/s
Channel(s) : 6 channels
Channel layout : L R C LFE Ls Rs
Sampling rate : 48.0 kHz
Frame rate : 31.250 FPS (1536 SPF)
Compression mode : Lossy
Stream size : 515 MiB (4%)
Title : Polish
Language : Polish
Service kind : Complete Main
Default : No
Forced : No

Audio #10
ID : 11
Format : E-AC-3
Format/Info : Enhanced AC-3
Commercial name : Dolby Digital Plus
Codec ID : A_EAC3
Duration : 1 h 52 min
Bit rate mode : Constant
Bit rate : 640 kb/s
Channel(s) : 6 channels
Channel layout : L R C LFE Ls Rs
Sampling rate : 48.0 kHz
Frame rate : 31.250 FPS (1536 SPF)
Compression mode : Lossy
Stream size : 515 MiB (4%)
Title : Brazilian Portuguese
Language : Portuguese
Service kind : Complete Main
Default : No
Forced : No

Audio #11
ID : 12
Format : E-AC-3
Format/Info : Enhanced AC-3
Commercial name : Dolby Digital Plus
Codec ID : A_EAC3
Duration : 1 h 52 min
Bit rate mode : Constant
Bit rate : 640 kb/s
Channel(s) : 6 channels
Channel layout : L R C LFE Ls Rs
Sampling rate : 48.0 kHz
Frame rate : 31.250 FPS (1536 SPF)
Compression mode : Lossy
Stream size : 515 MiB (4%)
Title : Russian
Language : Russian
Service kind : Complete Main
Default : No
Forced : No

Audio #12
ID : 13
Format : E-AC-3
Format/Info : Enhanced AC-3
Commercial name : Dolby Digital Plus
Codec ID : A_EAC3
Duration : 1 h 52 min
Bit rate mode : Constant
Bit rate : 640 kb/s
Channel(s) : 6 channels
Channel layout : L R C LFE Ls Rs
Sampling rate : 48.0 kHz
Frame rate : 31.250 FPS (1536 SPF)
Compression mode : Lossy
Stream size : 515 MiB (4%)
Title : Spanish
Language : Spanish
Service kind : Complete Main
Default : No
Forced : No

Audio #13
ID : 14
Format : E-AC-3
Format/Info : Enhanced AC-3
Commercial name : Dolby Digital Plus
Codec ID : A_EAC3
Duration : 1 h 52 min
Bit rate mode : Constant
Bit rate : 640 kb/s
Channel(s) : 6 channels
Channel layout : L R C LFE Ls Rs
Sampling rate : 48.0 kHz
Frame rate : 31.250 FPS (1536 SPF)
Compression mode : Lossy
Stream size : 515 MiB (4%)
Title : European Spanish
Language : Spanish
Service kind : Complete Main
Default : No
Forced : No

Audio #14
ID : 15
Format : E-AC-3
Format/Info : Enhanced AC-3
Commercial name : Dolby Digital Plus
Codec ID : A_EAC3
Duration : 1 h 52 min
Bit rate mode : Constant
Bit rate : 640 kb/s
Channel(s) : 6 channels
Channel layout : L R C LFE Ls Rs
Sampling rate : 48.0 kHz
Frame rate : 31.250 FPS (1536 SPF)
Compression mode : Lossy
Stream size : 515 MiB (4%)
Title : Swedish
Language : Swedish
Service kind : Complete Main
Default : No
Forced : No

Audio #15
ID : 16
Format : E-AC-3
Format/Info : Enhanced AC-3
Commercial name : Dolby Digital Plus
Codec ID : A_EAC3
Duration : 1 h 52 min
Bit rate mode : Constant
Bit rate : 640 kb/s
Channel(s) : 6 channels
Channel layout : L R C LFE Ls Rs
Sampling rate : 48.0 kHz
Frame rate : 31.250 FPS (1536 SPF)
Compression mode : Lossy
Stream size : 515 MiB (4%)
Title : Thai
Language : Thai
Service kind : Complete Main
Default : No
Forced : No

Audio #16
ID : 17
Format : E-AC-3
Format/Info : Enhanced AC-3
Commercial name : Dolby Digital Plus
Codec ID : A_EAC3
Duration : 1 h 52 min
Bit rate mode : Constant
Bit rate : 640 kb/s
Channel(s) : 6 channels
Channel layout : L R C LFE Ls Rs
Sampling rate : 48.0 kHz
Frame rate : 31.250 FPS (1536 SPF)
Compression mode : Lossy
Stream size : 515 MiB (4%)
Title : Turkish
Language : Turkish
Service kind : Complete Main
Default : No
Forced : No

Audio #17
ID : 18
Format : E-AC-3
Format/Info : Enhanced AC-3
Commercial name : Dolby Digital Plus
Codec ID : A_EAC3
Duration : 1 h 52 min
Bit rate mode : Constant
Bit rate : 640 kb/s
Channel(s) : 6 channels
Channel layout : L R C LFE Ls Rs
Sampling rate : 48.0 kHz
Frame rate : 31.250 FPS (1536 SPF)
Compression mode : Lossy
Stream size : 515 MiB (4%)
Title : Ukrainian
Language : Ukrainian
Service kind : Complete Main
Default : No
Forced : No

Text #1
ID : 19
Format : UTF-8
Codec ID : S_TEXT/UTF8
Codec ID/Info : UTF-8 Plain Text
Duration : 1 h 49 min
Bit rate : 60 b/s
Count of elements : 1569
Stream size : 48.1 KiB (0%)
Title : English
Language : English
Default : Yes
Forced : No

Text #2
ID : 20
Format : UTF-8
Codec ID : S_TEXT/UTF8
Codec ID/Info : UTF-8 Plain Text
Duration : 1 h 50 min
Bit rate : 119 b/s
Count of elements : 1680
Stream size : 96.5 KiB (0%)
Title : Arabic
Language : Arabic
Default : No
Forced : No

Text #3
ID : 21
Format : UTF-8
Codec ID : S_TEXT/UTF8
Codec ID/Info : UTF-8 Plain Text
Duration : 1 h 50 min
Bit rate : 65 b/s
Count of elements : 1704
Stream size : 53.1 KiB (0%)
Title : Chinese Simplified
Language : Chinese
Default : No
Forced : No

Text #4
ID : 22
Format : UTF-8
Codec ID : S_TEXT/UTF8
Codec ID/Info : UTF-8 Plain Text
Duration : 1 h 50 min
Bit rate : 65 b/s
Count of elements : 1741
Stream size : 53.3 KiB (0%)
Title : Chinese Traditional
Language : Chinese
Default : No
Forced : No

Text #5
ID : 23
Format : UTF-8
Codec ID : S_TEXT/UTF8
Codec ID/Info : UTF-8 Plain Text
Duration : 1 h 50 min
Bit rate : 58 b/s
Count of elements : 1629
Stream size : 47.1 KiB (0%)
Title : Croatian
Language : Croatian
Default : No
Forced : No

Text #6
ID : 24
Format : UTF-8
Codec ID : S_TEXT/UTF8
Codec ID/Info : UTF-8 Plain Text
Duration : 1 h 50 min
Bit rate : 59 b/s
Count of elements : 1676
Stream size : 48.0 KiB (0%)
Title : Czech
Language : Czech
Default : No
Forced : No

Text #7
ID : 25
Format : UTF-8
Codec ID : S_TEXT/UTF8
Codec ID/Info : UTF-8 Plain Text
Duration : 1 h 50 min
Bit rate : 55 b/s
Count of elements : 1336
Stream size : 44.9 KiB (0%)
Title : Danish
Language : Danish
Default : No
Forced : No

Text #8
ID : 26
Format : UTF-8
Codec ID : S_TEXT/UTF8
Codec ID/Info : UTF-8 Plain Text
Duration : 1 h 50 min
Bit rate : 58 b/s
Count of elements : 1603
Stream size : 47.2 KiB (0%)
Title : Dutch
Language : Dutch
Default : No
Forced : No

Text #9
ID : 27
Format : UTF-8
Codec ID : S_TEXT/UTF8
Codec ID/Info : UTF-8 Plain Text
Duration : 1 h 50 min
Bit rate : 57 b/s
Count of elements : 1440
Stream size : 46.8 KiB (0%)
Title : Finnish
Language : Finnish
Default : No
Forced : No

Text #10
ID : 28
Format : UTF-8
Codec ID : S_TEXT/UTF8
Codec ID/Info : UTF-8 Plain Text
Duration : 1 h 50 min
Bit rate : 108 b/s
Count of elements : 2195
Stream size : 87.7 KiB (0%)
Title : French
Language : French
Default : No
Forced : No

Text #11
ID : 29
Format : UTF-8
Codec ID : S_TEXT/UTF8
Codec ID/Info : UTF-8 Plain Text
Duration : 1 h 50 min
Bit rate : 3 b/s
Count of elements : 77
Stream size : 2.57 KiB (0%)
Title : French (Forced)
Language : French
Default : No
Forced : Yes

Text #12
ID : 30
Format : UTF-8
Codec ID : S_TEXT/UTF8
Codec ID/Info : UTF-8 Plain Text
Duration : 1 h 50 min
Bit rate : 62 b/s
Count of elements : 1657
Stream size : 50.9 KiB (0%)
Title : German
Language : German
Default : No
Forced : No

Text #13
ID : 31
Format : UTF-8
Codec ID : S_TEXT/UTF8
Codec ID/Info : UTF-8 Plain Text
Duration : 1 h 50 min
Bit rate : 96 b/s
Count of elements : 1687
Stream size : 77.9 KiB (0%)
Title : Greek
Language : Greek
Default : No
Forced : No

Text #14
ID : 32
Format : UTF-8
Codec ID : S_TEXT/UTF8
Codec ID/Info : UTF-8 Plain Text
Duration : 1 h 50 min
Bit rate : 95 b/s
Count of elements : 1690
Stream size : 77.2 KiB (0%)
Title : Hebrew
Language : Hebrew
Default : No
Forced : No

Text #15
ID : 33
Format : UTF-8
Codec ID : S_TEXT/UTF8
Codec ID/Info : UTF-8 Plain Text
Duration : 1 h 50 min
Bit rate : 60 b/s
Count of elements : 1682
Stream size : 49.3 KiB (0%)
Title : Hungarian
Language : Hungarian
Default : No
Forced : No

Text #16
ID : 34
Format : UTF-8
Codec ID : S_TEXT/UTF8
Codec ID/Info : UTF-8 Plain Text
Duration : 1 h 50 min
Bit rate : 60 b/s
Count of elements : 1678
Stream size : 48.9 KiB (0%)
Title : Indonesian
Language : Indonesian
Default : No
Forced : No

Text #17
ID : 35
Format : UTF-8
Codec ID : S_TEXT/UTF8
Codec ID/Info : UTF-8 Plain Text
Duration : 1 h 50 min
Bit rate : 59 b/s
Count of elements : 1692
Stream size : 48.4 KiB (0%)
Title : Italian
Language : Italian
Default : No
Forced : No

Text #18
ID : 36
Format : UTF-8
Codec ID : S_TEXT/UTF8
Codec ID/Info : UTF-8 Plain Text
Duration : 1 h 50 min
Bit rate : 60 b/s
Count of elements : 1921
Stream size : 49.0 KiB (0%)
Title : Japanese
Language : Japanese
Default : No
Forced : No

Text #19
ID : 37
Format : UTF-8
Codec ID : S_TEXT/UTF8
Codec ID/Info : UTF-8 Plain Text
Duration : 1 h 50 min
Bit rate : 78 b/s
Count of elements : 1778
Stream size : 63.1 KiB (0%)
Title : Korean
Language : Korean
Default : No
Forced : No

Text #20
ID : 38
Format : UTF-8
Codec ID : S_TEXT/UTF8
Codec ID/Info : UTF-8 Plain Text
Duration : 1 h 50 min
Bit rate : 58 b/s
Count of elements : 1633
Stream size : 47.1 KiB (0%)
Title : Malay
Language : Malay
Default : No
Forced : No

Text #21
ID : 39
Format : UTF-8
Codec ID : S_TEXT/UTF8
Codec ID/Info : UTF-8 Plain Text
Duration : 1 h 50 min
Bit rate : 53 b/s
Count of elements : 1253
Stream size : 43.4 KiB (0%)
Title : Norwegian Bokmal
Language : Norwegian Bokmal
Default : No
Forced : No

Text #22
ID : 40
Format : UTF-8
Codec ID : S_TEXT/UTF8
Codec ID/Info : UTF-8 Plain Text
Duration : 1 h 50 min
Bit rate : 58 b/s
Count of elements : 1674
Stream size : 47.4 KiB (0%)
Title : Polish
Language : Polish
Default : No
Forced : No

Text #23
ID : 41
Format : UTF-8
Codec ID : S_TEXT/UTF8
Codec ID/Info : UTF-8 Plain Text
Duration : 1 h 50 min
Bit rate : 63 b/s
Count of elements : 1819
Stream size : 51.7 KiB (0%)
Title : Portuguese
Language : Portuguese
Default : No
Forced : No

Text #24
ID : 42
Format : UTF-8
Codec ID : S_TEXT/UTF8
Codec ID/Info : UTF-8 Plain Text
Duration : 1 h 50 min
Bit rate : 59 b/s
Count of elements : 1675
Stream size : 48.1 KiB (0%)
Title : Brazilian Portuguese
Language : Portuguese
Default : No
Forced : No

Text #25
ID : 43
Format : UTF-8
Codec ID : S_TEXT/UTF8
Codec ID/Info : UTF-8 Plain Text
Duration : 1 h 50 min
Bit rate : 65 b/s
Count of elements : 1675
Stream size : 52.9 KiB (0%)
Title : Romanian
Language : Romanian
Default : No
Forced : No

Text #26
ID : 44
Format : UTF-8
Codec ID : S_TEXT/UTF8
Codec ID/Info : UTF-8 Plain Text
Duration : 1 h 50 min
Bit rate : 96 b/s
Count of elements : 1679
Stream size : 78.4 KiB (0%)
Title : Russian
Language : Russian
Default : No
Forced : No

Text #27
ID : 45
Format : UTF-8
Codec ID : S_TEXT/UTF8
Codec ID/Info : UTF-8 Plain Text
Duration : 1 h 50 min
Bit rate : 61 b/s
Count of elements : 1753
Stream size : 49.6 KiB (0%)
Title : Spanish
Language : Spanish
Default : No
Forced : No

Text #28
ID : 46
Format : UTF-8
Codec ID : S_TEXT/UTF8
Codec ID/Info : UTF-8 Plain Text
Duration : 1 h 50 min
Bit rate : 59 b/s
Count of elements : 1690
Stream size : 48.4 KiB (0%)
Title : European Spanish
Language : Spanish
Default : No
Forced : No

Text #29
ID : 47
Format : UTF-8
Codec ID : S_TEXT/UTF8
Codec ID/Info : UTF-8 Plain Text
Duration : 1 h 50 min
Bit rate : 57 b/s
Count of elements : 1598
Stream size : 46.4 KiB (0%)
Title : Swedish
Language : Swedish
Default : No
Forced : No

Text #30
ID : 48
Format : UTF-8
Codec ID : S_TEXT/UTF8
Codec ID/Info : UTF-8 Plain Text
Duration : 1 h 50 min
Bit rate : 160 b/s
Count of elements : 1698
Stream size : 130 KiB (0%)
Title : Thai
Language : Thai
Default : No
Forced : No

Text #31
ID : 49
Format : UTF-8
Codec ID : S_TEXT/UTF8
Codec ID/Info : UTF-8 Plain Text
Duration : 1 h 50 min
Bit rate : 59 b/s
Count of elements : 1639
Stream size : 48.4 KiB (0%)
Title : Turkish
Language : Turkish
Default : No
Forced : No

Text #32
ID : 50
Format : UTF-8
Codec ID : S_TEXT/UTF8
Codec ID/Info : UTF-8 Plain Text
Duration : 1 h 50 min
Bit rate : 88 b/s
Count of elements : 1677
Stream size : 71.8 KiB (0%)
Title : Ukrainian
Language : Ukrainian
Default : No
Forced : No

Text #33
ID : 51
Format : UTF-8
Codec ID : S_TEXT/UTF8
Codec ID/Info : UTF-8 Plain Text
Duration : 1 h 50 min
Bit rate : 80 b/s
Count of elements : 1564
Stream size : 65.5 KiB (0%)
Title : Vietnamese
Language : Vietnamese
Default : No
Forced : No


本人发布所有电影,均为无水印高清版,拒绝任何枪版。拒绝任何赌场博彩水印广告!

新种请使用utorrent,qBittorrent,transmission等标准BT软件下载!以获取最快速度。



1 个附件 售价 大小 下载 时间

最后的佣兵[简繁字幕][email protected]Q.COM 11.79GB.torrent 0 金币 33.91K 5243 次 1月前

#1楼
发帖时间:2021-08-02 21:06:46   |   回复数:5
ken.sting
一派掌门
感谢楼主分享精彩资源!
1月前 #2楼
yangbo83222179
一代宗师
谢谢楼主分享
1月前 #3楼
ALLEN820213
隐世仙人♂
感谢楼主分享 !!!
1月前 #4楼
99yy
一代宗师
感谢楼主分享 !
1月前 #5楼
ak147
超凡入圣№
感谢大大分享
1月前 #6楼
游客组