原生系统
一派掌门

[2020] [台湾] [剧情] [纯净版] [BT下载][安眠旅舍.Taipei.Suicide.Story][WEB-MKV/2.01GB][国语内封软英字][1080P][TEPES][亚马逊版]

-->


◎译  名 Taipei Suicide Story

◎片  名 安眠旅舍

◎年  代 2020

◎产  地 中国台湾

◎类  别 剧情 / 悬疑

◎语  言 汉语普通话

◎上映日期 2020(戛纳电影节)

◎豆瓣评分 0/10 from 0 users

◎豆瓣链接 https://movie.douban.com/subject/35134611

◎片  长 46分钟

◎主  演 宋芸桦 Vivian Sung

       黄腾浩 Tender Huang


◎标  签 短片 | 台湾 | 台湾电影 | 悬疑 | 电影 | 黄腾浩 | 王凯民 | 爱情


◎简  介


  《安眠旅舍》Taipei Suicide Story由导演王凯民执导,宋芸桦及黄腾浩主演。剧情内容叙述一间旅馆提供客人选择各式各样的自杀方式,黄腾浩饰演的柜台服务人员与宋芸桦饰演的客人相遇的故事。

  宋芸桦继去年的《灼人秘密》后连续第二年有作品入选戛纳官方单元,她在社交平台分享入选心得,写道:“我很喜欢这个剧本,也从新的角度去看这个剧本想表达的核心。剧本直接点出现代人内心的挣扎与无助,虽然影片只是淡淡呈现,但其实残酷又写实。原来以为这次演出的角色类型不一定会第一时间联想到我,所以很谢谢导演和制作团队愿意相信我的可能性,让我有机会展现不同的样貌给大家看。也很感谢所有安眠旅舍的团队,期待作品能很快跟大家见面。”



Video
ID : 1
Format : AVC
Format/Info : Advanced Video Codec
Format profile : [email protected]
Format settings : CABAC / 4 Ref Frames
Format settings, CABAC : Yes
Format settings, Reference frames : 4 frames
Codec ID : V_MPEG4/ISO/AVC
Duration : 45 min 19 s
Bit rate mode : Constant
Bit rate : 6 109 kb/s
Nominal bit rate : 10 000 kb/s
Width : 1 920 pixels
Height : 1 040 pixels
Display aspect ratio : 1.85:1
Frame rate mode : Constant
Frame rate : 24.000 FPS
Color space : YUV
Chroma subsampling : 4:2:0
Bit depth : 8 bits
Scan type : Progressive
Bits/(Pixel*Frame) : 0.127
Stream size : 1.93 GiB (96%)
Default : Yes
Forced : No
Color range : Limited
Color primaries : BT.709
Transfer characteristics : BT.709
Matrix coefficients : BT.709

Audio
ID : 2
Format : E-AC-3
Format/Info : Enhanced AC-3
Commercial name : Dolby Digital Plus
Codec ID : A_EAC3
Duration : 45 min 19 s
Bit rate mode : Constant
Bit rate : 224 kb/s
Channel(s) : 2 channels
Channel layout : L R
Sampling rate : 48.0 kHz
Frame rate : 31.250 FPS (1536 SPF)
Compression mode : Lossy
Stream size : 72.6 MiB (4%)
Language : Chinese
Service kind : Complete Main
Default : Yes
Forced : No

Text
ID : 3
Format : UTF-8
Codec ID : S_TEXT/UTF8
Codec ID/Info : UTF-8 Plain Text
Duration : 37 min 50 s
Bit rate : 30 b/s
Count of elements : 332
Stream size : 8.55 KiB (0%)
Language : English
Default : No
Forced : No


本人发布的种子请使用专业BT下载工具:

UT,Bitcomet,qBittorrent,Xdown开启上传后再下载!!!

使用迅雷或度盘离线可能会没速度!!!


视频的网盘资源均在视频后缀(如mp4或mkv)后又跟随了.xy(mp4.xy或mkv.xy)用以混淆官方视听!
并且加密了文件名,设置了独有的解压密码,请使用WinRAR解压,使用好压或其他可能会出错!
已完结剧集不再分集打包上传,整体打包后分卷,无法单独下载某一集,需要全部下载后一起解压,敬请知晓!
请各位下载的坛友先保存至自己的网盘,然后再进行下载!!!
不要直接在线观看或者解压,否则会很快被网盘官方发觉并和谐!


阿里云盘后缀名凡是“PDF”的,请在下载完成后将后缀名“PDF”修改为“rar”,即可正常解压,观看!

目前阿里云盘上传和下载均不限速,趁着这段“免费VIP”的时间,就暂时放弃度盘吧!


请下载完成的朋友自觉做种一段时间,小水管出种不易,且下且珍惜,谢谢!!!


解压请使用官方原版WinRAR,使用破解版或者好压等软件可能会出错,感谢所有赞赏的朋友!!!


1 个附件 售价 大小 下载 时间

Taipei.Suicide.Story.2020.CHINESE.1080P.AMZN.WEBRip.X264.DDP2.0-TEPES.rar 0 金币 996.10K 5586 次 7天前

#1楼
发帖时间:2021-09-15 11:17:08   |   回复数:2
ALLEN820213
隐世仙人♂
感谢楼主分享 !!!
7天前 #2楼
ak147
超凡入圣№
感谢大大分享
6天前 #3楼
游客组